EXSite.pl - Portal ze wszystkim Mamy tutaj wszystko

NIE MASZ JESZCZE KONTA? ZAREJESTRUJ SIĘ ZA DARMO!   
Przypomnij hasło X

Elita zabójców / Killer Elite (2011) BRRiP.XviD.AC3.Cropped-SMS

Dodał: ampatinis 7 Listopad 2011 14:24


Elita zabójców / Killer Elite (2011) BRRiP.XviD.AC3.Cropped-SMS

Elita zabójców / Killer Elite (2011) BRRiP.XviD.AC3.Cropped-SMS

Elita zabójców / Killer Elite (2011) BRRiP.XviD.AC3.Cropped-SMS
Gatunek........: Thriller,Akcja,
Premiera.......: 2011-09-22 (świat) 2011-10-07 (Polska)
Reżyseria......: Gary McKendry,
Scenariusz.....: Gary McKendry,Matt Sherring,
Ocena..........: 6,8/10 (1884 vote)
Obsada.........: Jason Statham, Clive Owen, Robert De Niro, Dominic Purcell,
Aden Young, Yvonne Strahovski, Ben Mendelsohn, Adewale Akinnuoye-Agbaje,
David Whiteley, Matthew Nable,

Na byłych żołnierzy z elitarnej jednostki, polują zawodowi zabójcy. Kiedy porywają Huntera (Robert de Niro), mentora Dannego (Jason Statham), były komandos wraca do gry, by uratować przyjaciela. Chcąc go ocalić musi podjąć się misji prawie niemożliwej: zlikwidować trzech zabójców wysłanych przez starego wroga (Clive Owen) i stanąć z nim twarzą w twarz. Przeżyje najlepszy.

Complete name : C:\Users\root\Downloads\Killer Elite 2011 BRRiP XviD AC3-Cropped.SMS.avi
Format : AVI
Format/Info : Audio Video Interleave
File size : 768 MiB
Duration : 1h 56mn
Overall bit rate : 920 Kbps
Writing library : VirtualDub build 31953/release

Video
ID : 0
Format : MPEG-4 Visual
Format profile : Advanced Simple@L5
Format settings, BVOP : 2
Format settings, QPel : No
Format settings, GMC : No warppoints
Format settings, Matrix : Default (H.263)
Muxing mode : Packed bitstream
Codec ID : XVID
Codec ID/Hint : XviD
Duration : 1h 56mn
Bit rate : 716 Kbps
Width : 720 pixels
Height : 246 pixels
Display aspect ratio : 2.927
Frame rate : 29.970 fps
Color space : YUV
Chroma subsampling : 4:2:0
Bit depth : 8 bits
Scan type : Progressive
Compression mode : Lossy
Bits/(Pixel*Frame) : 0.135
Stream size : 598 MiB (78%)
Writing library : XviD 64

Audio
ID : 1
Format : AC-3
Format/Info : Audio Coding 3
Mode extension : CM (complete main)
Codec ID : 2000
Duration : 1h 56mn
Bit rate mode : Constant
Bit rate : 192 Kbps
Channel(s) : 2 channels
Channel positions : Front: L R
Sampling rate : 48.0 KHz
Bit depth : 16 bits
Compression mode : Lossy
Stream size : 160 MiB (21%)
Alignment : Aligned on interleaves
Interleave, duration : 33 ms (1.00 video frame)
Interleave, preload duration : 512 ms


Elita zabójców / Killer Elite (2011) BRRiP.XviD.AC3.Cropped-SMS

Elita zabójców / Killer Elite (2011) BRRiP.XviD.AC3.Cropped-SMS Elita zabójców / Killer Elite (2011) BRRiP.XviD.AC3.Cropped-SMS

Elita zabójców / Killer Elite (2011) BRRiP.XviD.AC3.Cropped-SMS
Uwaga! Linki nie zakodowane tylko dla zarejestrowanych użytkowników!

Nie masz konta? Zarejestruj się za darmo!
----------------
Links are not encoded only for registered users only! Plese login or register!



Użytkownik VIP

BlodVarkVIP Uploader

#1 | Dodany: 7 Listopad 2011 14:24

ok
Użytkownik VIP

markotVIP

#2 | Dodany: 7 Listopad 2011 14:24



.avi + .txt





Elita zabójców / Killer Elite (2011)

HDRip.XVID.AC3.Partial.BluR.SeT-CM8 NAPiSY PL

OPIS - TRAILER - SCREENY - NAPISY PL
TUTAJ



General: Killer.Elite.2011.HDRip.XVID.AC3.Partial.BluR.SeT-CM8.avi
+ Killer.Elite.2011.HDRip.XVID.AC3.Partial.BluR.SeT-CM8.txt
Format: AVI at 1 634 Kbps
Length: 1.33 GB for 1h 56mn 31s 225ms
Video: MPEG-4 Visual at 1 430 Kbps
Aspect: 720 x 304 (2.368) at 29.970 fps
Audio: AC-3 at 192 Kbps
Infos: 2 channels, 48.0 KHz
Napisy: polskie w pliku .txt
Info: pełny obraz (bez przycięcia), zasłonięte korea?skie tylko gdy się pojawiają




MOŻNA POBIERAĆ NA PRZEMIAN
POJEDYNCZO SPAKOWANE
BEZ HASŁA
Uwaga! Linki nie zakodowane tylko dla zarejestrowanych użytkowników!

Nie masz konta? Zarejestruj się za darmo!
----------------
Links are not encoded only for registered users only! Plese login or register!



KLLRELTEHDR
Użytkownik VIP

niedzwiedzxVIP

#3 | Dodany: 7 Listopad 2011 14:24

Elita zabójców / Killer Elite (2011) BRRiP.XviD.AC3.Cropped-SMS

TYLKO 1 LINK


INFO:



Uwaga! Linki nie zakodowane tylko dla zarejestrowanych użytkowników!

Nie masz konta? Zarejestruj się za darmo!
----------------
Links are not encoded only for registered users only! Plese login or register!
Jeśli chcesz rozśmieszy? Boga, opowiedz mu o twoich planach na przysz?oś?.

Informacje

Jeżeli chcesz skomentować artykuł musisz być zarejestrowany na stronie.