EXSite.pl - Portal ze wszystkim Mamy tutaj wszystko

NIE MASZ JESZCZE KONTA? ZAREJESTRUJ SIĘ ZA DARMO!   
Przypomnij hasło X

Devil May Cry / Debiru mei kurai (2007) DUAL.720p.BluRay.x264.AC3-N0B0DY / POLSKI LEKTOR

Dodał: CrashRed 25 Grudzień 2011 13:36


Devil May Cry / Debiru mei kurai (2007) DUAL.720p.BluRay.x264.AC3-N0B0DY / POLSKI LEKTOR

Devil May Cry / Debiru mei kurai (2007)  DUAL.720p.BluRay.x264.AC3-N0B0DY / POLSKI LEKTOR

Devil May Cry / Debiru mei kurai (2007)  DUAL.720p.BluRay.x264.AC3-N0B0DY / POLSKI LEKTOR
http://www.filmweb.pl/serial/Devil+May+Cry-2007-379259

gatunek: Fantasy, Akcja, Anime
Japonia

Devil May Cry nawiązuje do przygód łowcy demonów - Dante'go, który sam jest pół-demonem, pół-człowiekiem.. Dante działa na rzecz własnego interesu, nazwanego "Devil May Cry". Postacie są wykreowane na bazie popularnej serii gier na konsolę Playstation 2, wydanych przez Capcom Corporation.


Format : Matroska
File size : 722 MiB
Duration : 24mn 32s
Overall bit rate : 4 116 Kbps
Video
Format/Info : Advanced Video Codec
Format profile : High@L4.1
Bit rate : 3 345 Kbps
Width : 1 280 pixels
Height : 716 pixels
Display aspect ratio : 16:9
Frame rate : 23.976 fps
Stream size : 573 MiB (79%)
Writing library : x264 core 73 r1243M 2cd0054
Language : English
Audio #1
Format : AC-3
Duration : 24mn 32s
Bit rate mode : Constant
Bit rate : 384 Kbps
Channel(s) : 6 channels
Stream size : 67.4 MiB (9%)
Language : Polish
Audio #2
Format : AC-3
Duration : 24mn 32s
Bit rate mode : Constant
Bit rate : 384 Kbps
Channel(s) : 6 channels
Stream size : 67.4 MiB (9%)
Language : Japanese
Text
ID : 4
Format : UTF-8
Codec ID : S_TEXT/UTF8
Codec ID/Info : UTF-8 Plain Text
Language : English



Devil May Cry / Debiru mei kurai (2007)  DUAL.720p.BluRay.x264.AC3-N0B0DY / POLSKI LEKTOR
Uwaga! Linki nie zakodowane tylko dla zarejestrowanych użytkowników!

Nie masz konta? Zarejestruj się za darmo!
----------------
Links are not encoded only for registered users only! Plese login or register!



Użytkownik VIP

CrashRedVIP

#1 | Dodany: 18 Grudzień 2011 14:29

cdn...
Użytkownik VIP

zbieraczUżytkownik

#2 | Dodany: 18 Grudzień 2011 20:38

Wszystko ok, tylko jeśli można prosić, wiem, że wymagałoby to czasu to prosiłbym o wstawkę na MU.
Prosz? up na mediafire.
Zapraszam na Youtube MrTheDiks
Użytkownik VIP

tajson49Użytkownik

#3 | Dodany: 18 Grudzień 2011 22:24

thx :)
Użytkownik VIP

max452Użytkownik

#4 | Dodany: 19 Grudzień 2011 23:50

thx
Użytkownik VIP

czesio_14Użytkownik

#5 | Dodany: 21 Grudzień 2011 12:30

love thx
kiedy dodasz pozostałe 2 epki?
Użytkownik VIP

ZELERRUżytkownik

#6 | Dodany: 25 Grudzień 2011 15:57

ok thx
http://www.speedtest.pl/test/134184565
www.myanimelist.net/animelist/ZELERR
Użytkownik VIP

EnckeUżytkownik

#7 | Dodany: 26 Grudzień 2011 16:02

ok
Użytkownik VIP

Grubz123Użytkownik

#8 | Dodany: 27 Kwiecień 2012 18:40

linki linki linki linki linki
Athlon 64 X2 3000Mhz
2x2 Gb ram
GeForce 9400 GT

Informacje

Jeżeli chcesz skomentować artykuł musisz być zarejestrowany na stronie.