EXSite.pl - Portal ze wszystkim Mamy tutaj wszystko

NIE MASZ JESZCZE KONTA? ZAREJESTRUJ SIĘ ZA DARMO!   
Przypomnij hasło X

Cyber City Oedo 808 1-3 Lektor PL [Saipher]

Dodał: Saipher 20 Grudzień 2011 14:00




Cyber City Oedo 808 1-3 Lektor PL [Saipher]

Cyber City Oedo 808 1-3 Lektor PL [Saipher]

Format : RealVideo 4
Codec ID : V_REAL/RV40
Codec ID/Info : RealVideo 4.0 aka RealVideo 9
Duration : 47mn 9s
Bit rate : 382 Kbps
Width : 640 pixels
Height : 480 pixels
Display aspect ratio : 4:3
Frame rate : 25.000 fps
Bits/(Pixel*Frame) : 0.050
Stream size : 129 MiB (84%)
Default : Yes
Forced : No
Audio
Format : Cooker
Codec ID : A_REAL/COOK
Codec ID/Info : Real Audio Cook Codec (codename: Gecko)
Duration : 47mn 9s
Bit rate : 64.1 Kbps
Channel(s) : 2 channels
Sampling rate : 44.1 KHz
Bit depth : 16 bits
Delay relative to video : 264ms
Stream size : 21.6 MiB (14%)

Paczki posiadają dane naprawcze!
Wielkość od 145mb -160mb.



Akcja toczy się w odległej przyszłości. Na orbitalnym więzieniu trzech mężczyzn - Sengoku, Goggles i Benten odbywa kilkuset letnią karę. Ogólnie wychodzi na to, że żaden z nich nie ma szans na opuszczenie celi, chyba, że już będą martwi. Otrzymują jednak propozycję służenia w cyberpolicji w mieście Oedo w zamian za wolność.


Jakiekolwiek uwagi i skargi proszę kierować na PW, bo nie jestem wstanie co chwilę przeglądać każdego newsa!



Cyber City Oedo 808 1-3 Lektor PL [Saipher]
Cyber City Oedo 808 1-3 Lektor PL [Saipher]

Cyber City Oedo 808 1-3 Lektor PL [Saipher]




Cyber City Oedo 808 1-3 Lektor PL [Saipher]
Uwaga! Linki nie zakodowane tylko dla zarejestrowanych użytkowników!

Nie masz konta? Zarejestruj się za darmo!
----------------
Links are not encoded only for registered users only! Plese login or register!



Użytkownik VIP

SaipherUżytkownik

#1 | Dodany: 20 Grudzień 2011 14:01

Zapraszam ok
Flynn Lives !

Informacje

Jeżeli chcesz skomentować artykuł musisz być zarejestrowany na stronie.