EXSite.pl - Portal ze wszystkim Mamy tutaj wszystko

NIE MASZ JESZCZE KONTA? ZAREJESTRUJ SIĘ ZA DARMO!   
Przypomnij hasło X

Codehunters (2006) DVDRip

Dodał: Download Killer 9 Listopad 2012 17:15


Codehunters  (2006) DVDRip
Codehunters  (2006) DVDRip
Codehunters  (2006) DVDRip

świat przedstawiony w „Codehunters” wygląda jak połączenie westernu z rzeczywistością „Mad Maksa”. Akcja rozgrywa się w niedalekiej przyszłości w portowym mieście Lhek leżącym w Azji. Nie jest to miejsce przyjazne dla człowieka – wszelkie granice przestały istnieć, legalna władza upadła, zaś jedyną namiastką prawa i porządku są brutalne rządy Khaana kontrolującego Lhek. Dookoła miasta rozciąga się bezkresne wysuszone pustkowie, tu i ówdzie usiane jedynie zrujnowanymi pozostałościami dawnego świata. Sama metropolia zresztą też zbyt zachęcająca nie jest, bo oprócz żołnierzy, na ulicach można też spotkać demony – krwiożercze istoty stworzone przed osiemdziesięciu laty przez prawą rękę Khaana, Nirana, z dziecięcych koszmarów. W tym niezbyt optymistycznym obrazie pojawił się jednak jasny element, a był nim Krai, potomek prawie zupełnie wyniszczonej rasy zdolnej manipulować kodem DNA.


General
Complete name : CODEHUNTERS.avi
Format : AVI
File size : 85.5 MiB
Duration : 9mn 5s
Overall bit rate : 1 316 Kbps

Video
Format : MPEG-4 Visual
Codec ID/Hint : XviD
Duration : 9mn 5s
Bit rate : 1 178 Kbps
Width : 640 pixels
Height : 360 pixels
Display aspect ratio : 16:9
Frame rate : 25.000 fps
Stream size : 76.6 MiB (90%)

Audio
Format : MPEG Audio
Codec ID/Hint : MP3
Bit rate mode : Constant
Bit rate : 128 Kbps
Channel(s) : 2 channels
Sampling rate : 48.0 KHz
Stream size : 8.32 MiB (10%)


Download
http://turbobit.net/127n6ryzc0qi.html

Lub/Or
http://egofiles.com/pRUM8bFwxSiPj7eH

Lub/Or
http://rapidgator.net/file/55105883/CODEHUNTERS.avi.html

Informacje

Jeżeli chcesz skomentować artykuł musisz być zarejestrowany na stronie.