EXSite.pl - Portal ze wszystkim Mamy tutaj wszystko

NIE MASZ JESZCZE KONTA? ZAREJESTRUJ SIĘ ZA DARMO!   
Przypomnij hasło X

Little Witch Academia OVA (2013) [1080p | ENG sub]

Dodał: Download Killer 26 Kwiecień 2013 18:53


Little Witch Academia OVA (2013) [1080p | ENG sub]


Młodziutka Akko przystępuje do Szkoły Magii, w której młode dziewczęta uzyskują wiedzę, jak być silnymi wiedźmami. Wzorująca się na swojej idolce z dzieci?stwa, wspaniałej władczyni różdżki Chariot, staje się obiektem kpin. Wszystko zmienia się w czasie jednej z lekcji. Uwolniony przez przypadek potężny smok zaczyna siać spustoszenie, a jedyną osobą zdolną go powstrzymać jest Akko.

General
Complete name : Little Witch Academia.mp4
Format : MPEG-4
File size : 631 MiB
Duration : 26mn 9s
Overall bit rate mode : Variable
Overall bit rate : 3 370 Kbps

Video
Format : AVC
Format profile : High@L4.0
Bit rate : 3 175 Kbps
Maximum bit rate : 10.9 Mbps
Width : 1 920 pixels
Height : 1 080 pixels
Display aspect ratio : 16:9
Frame rate mode : Constant
Frame rate : 29.970 fps
Chroma subsampling : 4:2:0
Bit depth : 8 bits
Scan type : Progressive
Stream size : 594 MiB (94%)

Audio
Format : AAC
Bit rate mode : Variable
Bit rate : 192 Kbps
Maximum bit rate : 202 Kbps
Channel(s) : 2 channels
Channel positions : Front: L R
Sampling rate : 44.1 KHz
Compression mode : Lossy
Stream size : 35.9 MiB (6%)


Screens:
s21.postimg.org/yx0aosww7/lwa.jpg

Download:
http://egofiles.com/wmM7ZFxAlDBeRTNG

http://turbobit.net/swk4yfp33s5h.html

http://rapidgator.net/file/377fe02f2cea41d4beb9588bf7f9ef45/Little.Witch.Academia_FullHD_eng.sub_Download.Killer.mp4.html

Użytkownik VIP

Download KillerUploader

#1 | Dodany: 26 Kwiecień 2013 18:54





Dobre animu ok
POLECAM!





Spragniony anime, mangi i info z Japonii? Klikaj:
Projekt K7 M&A


Moje dotychczasowe publikacje na EXSite
http://exsite.pl/user/Download+Killer/news

Informacje

Jeżeli chcesz skomentować artykuł musisz być zarejestrowany na stronie.