EXSite.pl - Portal ze wszystkim Mamy tutaj wszystko

NIE MASZ JESZCZE KONTA? ZAREJESTRUJ SIĘ ZA DARMO!   
Przypomnij hasło X

Auta 2 / Cars 2 (2011) PLDUB.DVDRip.H264.AC3-Sajmon

Dodał: sajmon22 3 Listopad 2011 18:28


Auta 2 / Cars 2 (2011) PLDUB.DVDRip.H264.AC3-Sajmon
Auta 2 / Cars 2
czas trwania: 1 godz. 52 min.
gatunek: Animacja, Familijny, Komedia, Przygodowy
premiera: 29 czerwca 2011 (Polska) 18 czerwca 2011 (świat)
reżyseria: Brad Lewis, John Lasseter
scenariusz: Ben Queen

Opis:
Druga część wielkiego hitu z 2006 roku. Samochód wyścigowy Zygzak McQueen po raz kolejny weźmie udział w wielkim wyścigu. Tym razem wyścig będzie obejmował trasę w Japonii, Austrii, Włoszech, Francji oraz Wielkiej Brytanii, jednak Zygzak wraz z swoim wiernym towarzyszem Złomkiem zostanie wplątany w między narodową intrygę szpiegowską.

General
Complete name : Cars.2.2011.PLDUB.DVDRip.H264.AC3-Sajmon
Format : AVI
File size : 1.36 GiB
Duration : 1h 45mn
Overall bit rate : 1 849 Kbps

Video
Codec ID : H264
Bit rate : 1 456 Kbps
Width : 720 pixels
Height : 298 pixels
Display aspect ratio : 2.40:1
Frame rate : 25.000 fps
Bits/(Pixel*Frame) : 0.271
Stream size : 1.07 GiB (79%)

Audio
Format : AC-3
Bit rate : 384 Kbps
Channel(s) : 6 channels
Stream size : 289 MiB (21%)
Uwaga! Linki nie zakodowane tylko dla zarejestrowanych użytkowników!

Nie masz konta? Zarejestruj się za darmo!
----------------
Links are not encoded only for registered users only! Plese login or register!

Użytkownik VIP

CzibANUżytkownik

#1 | Dodany: 9 Grudzień 2011 10:30

Auta 2 / Cars 2 (2011) PLDUB.BRRip.XviD-B89 | DUBBING PL

Format : AVI at 929 Kb/s
Length : 700 MB for 1h 45 min. 22s 200ms
Video #0 : MPEG-4 Visual at 807 Kb/s
Aspect : 640 x 272 (2.353) at 25.000 fps
Audio #0 : MPEG Audio at 112


Filesonic
Uwaga! Linki nie zakodowane tylko dla zarejestrowanych użytkowników!

Nie masz konta? Zarejestruj się za darmo!
----------------
Links are not encoded only for registered users only! Plese login or register!

Fileserve
Uwaga! Linki nie zakodowane tylko dla zarejestrowanych użytkowników!

Nie masz konta? Zarejestruj się za darmo!
----------------
Links are not encoded only for registered users only! Plese login or register!

Informacje

Jeżeli chcesz skomentować artykuł musisz być zarejestrowany na stronie.