EXSite.pl - Portal ze wszystkim Mamy tutaj wszystko

NIE MASZ JESZCZE KONTA? ZAREJESTRUJ SIĘ ZA DARMO!   
Przypomnij hasło X

Księżniczka i żaba / The Princess and the Frog (2009) PLDUB.DVDRip.H264.AC3-Sajmon

Dodał: sajmon22 15 Listopad 2011 17:15


Księżniczka i żaba / The Princess and the Frog (2009) PLDUB.DVDRip.H264.AC3-Sajmon
Księżniczka i żaba / The Princess and the Frog
produkcja: USA
gatunek: Animacja, Dla dzieci
data premiery: 2010-01-15 (Polska) , 2009-11-25 (świat)
reżyseria John Musker , Ron Clements
scenariusz John Musker , Ron Clements
muzyka Randy Newman
czas trwania: 97

Opis:
Akcja rozgrywa się w w Nowym Orleanie w czasach narodzin jazzu. Bohaterką jest czarnoskóra Tiana, spotyka ona na swojej drodze gadająca żabę, która twierdzi że jest księciem i jeden pocałunek księżniczki przywróci mu ludzką postać. Sytuacja niestety się odmienia i ostatecznie to Tiana zmienia się w... żabę! Księżniczka dostaje szansę od losu na przygodę życia i znalezienie prawdziwej miłości...

General
Complete name : The.Princess.and.the.Frog.2009.PLDUB.DVDRip.H264.AC3-Sajmon
Format : AVI
File size : 1.36 GiB
Duration : 1h 33mn
Overall bit rate : 2 088 Kbps

Video
Codec ID : H264
Bit rate : 1 694 Kbps
Width : 720 pixels
Height : 398 pixels
Display aspect ratio : 16:9
Frame rate : 25.000 fps
Bits/(Pixel*Frame) : 0.236
Stream size : 1.11 GiB (81%)

Audio
Format : AC-3
Bit rate : 384 Kbps
Channel(s) : 6 channels
Stream size : 257 MiB (18%)
Uwaga! Linki nie zakodowane tylko dla zarejestrowanych użytkowników!

Nie masz konta? Zarejestruj się za darmo!
----------------
Links are not encoded only for registered users only! Plese login or register!

Informacje

Jeżeli chcesz skomentować artykuł musisz być zarejestrowany na stronie.