EXSite.pl - Portal ze wszystkim Mamy tutaj wszystko

NIE MASZ JESZCZE KONTA? ZAREJESTRUJ SIĘ ZA DARMO!   
Przypomnij hasło X

Kung Fu Panda (2008) PLDUB.DVDRip.H264.AC3-Sajmon

Dodał: sajmon22 16 Listopad 2011 12:17


Kung Fu Panda (2008) PLDUB.DVDRip.H264.AC3-Sajmon
reżyseria: Mark Osborne, John Stevenson
scenariusz: Jonathan Aibel, Glenn Berger
premiera: 4 lipca 2008 (Polska) 2008-07-04 15 maja 2008 (świat) 2008-05-15
produkcja: USA
gatunek: Animacja, Familijny
czas trwania: 92 min.

Optymistycznie nastawiony do życia, troszkę niezgrabny Po jest największym fanem Kung Fu w okolicy … co jednak nie zawsze przydaje się w jego codziennej pracy – sprzedawcy w prowadzonym przez rodzinę sklepie z makaronem. Wybrany nieoczekiwanie do wypełnienia starożytnej przepowiedni, Po nie może uwierzyć, że jego marzenia mogą się lada moment spełnić. Wstępuje do świata Kung Fu i zaczyna ćwiczyć u boku swoich idoli, legendarnych pięciu zawodników – Tygrysicy, Żurawia, Modliszka, Żmii i Małpy – pod przewodnictwem lidera grupy, nauczyciela i trenera , Mistrza Shifu. Zanim jeszcze wszyscy zorientują się, o co tak naprawdę chodzi w tej grze, mściwy i zdradziecki biały lampart Tai Lung zmierza w ich kierunku, aby rozbić grupę w proch i pył. Tym razem to właśnie Po będzie musiał stawić czoła niebezpiecznemu przeciwnikowi i uratować wszystkich przed nadciągającym niebezpiecze?stwem. Czy uda mu się ziścić marzenie o mistrzowskim opanowaniu sztuki walki? Po całym swoim sercem i 'masą' oddany jest zadaniu, jakie ma do wykonania. Z czasem okaże się, że ten nieoczekiwany bohater ze swoich słabości potrafi uczynić atut i największą siłę swojego działania.

General
Complete name : Kung.Fu.Panda.2008.PLDUB.DVDRip.H264.AC3-Sajmon
Format : AVI
File size : 1.36 GiB
Duration : 1h 28mn
Overall bit rate : 2 211 Kbps

Video
Codec ID : H264
Bit rate : 1 817 Kbps
Width : 720 pixels
Height : 302 pixels
Display aspect ratio : 2.40:1
Frame rate : 25.000 fps
Bits/(Pixel*Frame) : 0.334
Stream size : 1.12 GiB (82%)

Audio
Format : AC-3
Bit rate : 384 Kbps
Channel(s) : 6 channels
Stream size : 242 MiB (17%)
Uwaga! Linki nie zakodowane tylko dla zarejestrowanych użytkowników!

Nie masz konta? Zarejestruj się za darmo!
----------------
Links are not encoded only for registered users only! Plese login or register!

Użytkownik VIP

darkwizardUżytkownik

#1 | Dodany: 28 Październik 2012 16:24

Kung Fu Panda (2008) DVDRip.XviD/Dubbing PL




Format : AVI at 1 110 Kbps
Length : 701 MiB for 1h 28mn 13s 80ms

Video #0 : MPEG-4 Visual at 968 Kbps
Aspect : 640 x 272 (2.353) at 25.000 fps

Audio #0 : MPEG Audio at 128 Kbps
Infos : 2 channels, 48.0 KHz





Szybkie serwery dla free userow
Uwaga! Linki nie zakodowane tylko dla zarejestrowanych użytkowników!

Nie masz konta? Zarejestruj się za darmo!
----------------
Links are not encoded only for registered users only! Plese login or register!
tylko darmowe hosty

Informacje

Jeżeli chcesz skomentować artykuł musisz być zarejestrowany na stronie.