EXSite.pl - Portal ze wszystkim Mamy tutaj wszystko

NIE MASZ JESZCZE KONTA? ZAREJESTRUJ SIĘ ZA DARMO!   
Przypomnij hasło X

Kot w butach Trzy Diabły / Puss in Boots The Three Diablos (2011) PLSUBBED.BRRip.XviD.AC3-markus / Napisy PL

Dodał: markus04 29 Marzec 2012 22:43


Kot w butach Trzy Diabły / Puss in Boots The Three Diablos (2011) PLSUBBED.BRRip.XviD.AC3-markus / Napisy PL


Kot w butach Trzy Diabły / Puss in Boots The Three Diablos (2011) PLSUBBED.BRRip.XviD.AC3-markus / Napisy PL


INFO:
czas trwania: 13 min.
gatunek: Animacja, Przygodowy, Krótkometrażowy
produkcja: USA

Film opowiada historię Kota w Butach i jego misji odzyskania skradzionych rubinów księżniczki. Pomagają mu w tym trzy małe kocięta - Trzej Diablos.


Kot w butach Trzy Diabły / Puss in Boots The Three Diablos (2011) PLSUBBED.BRRip.XviD.AC3-markus / Napisy PL


DANE TECHNICZNE:


General
Complete name : Puss.in.Boots.The.Three.Diablos.2011.PLSUBBED.BRRip.XviD.AC3-markus.avi
Format : AVI
Format/Info : Audio Video Interleave
File size : 182 MiB
Duration : 13mn 5s
Overall bit rate : 1 944 Kbps
Writing library : MPlayer

Video
ID : 0
Format : MPEG-4 Visual
Format profile : Advanced Simple@L5
Format settings, BVOP : 2
Format settings, QPel : No
Format settings, GMC : No warppoints
Format settings, Matrix : Default (H.263)
Codec ID : XVID
Codec ID/Hint : XviD
Duration : 13mn 5s
Bit rate : 1 772 Kbps
Width : 1 280 pixels
Height : 720 pixels
Display aspect ratio : 16:9
Frame rate : 23.976 fps
Color space : YUV
Chroma subsampling : 4:2:0
Bit depth : 8 bits
Scan type : Progressive
Compression mode : Lossy
Bits/(Pixel*Frame) : 0.080
Stream size : 166 MiB (91%)
Writing library : XviD 1.1.2 (UTC 2006-11-01)

Audio
ID : 1
Format : MPEG Audio
Format version : Version 1
Format profile : Layer 3
Mode : Joint stereo
Codec ID : 55
Codec ID/Hint : MP3
Duration : 13mn 5s
Bit rate mode : Constant
Bit rate : 160 Kbps
Channel(s) : 2 channels
Sampling rate : 44.1 KHz
Compression mode : Lossy
Delay relative to video : 42ms
Stream size : 15.0 MiB (8%)
Alignment : Aligned on interleaves
Interleave, duration : 26 ms (0.63 video frame)
Interleave, preload duration : 809 ms


DOWNLOAD:

Uwaga! Linki nie zakodowane tylko dla zarejestrowanych użytkowników!

Nie masz konta? Zarejestruj się za darmo!
----------------
Links are not encoded only for registered users only! Plese login or register!


Pliki można pobierać Przemiennie!! :) Nie zapomnij podziękować!


Uwaga! Re-Upload możliwy w ciągu 24h od zgłoszenia mi niedziałających linków.

Użytkownik VIP

bielu93Użytkownik

#1 | Dodany: 29 Marzec 2012 22:53

thx
Użytkownik VIP

Myszunia2409Użytkownik

#2 | Dodany: 30 Marzec 2012 11:07

Dzięki taniec
Użytkownik VIP

arczik01Użytkownik

#3 | Dodany: 5 Kwiecień 2012 15:12

thx taniec
Użytkownik VIP

emilio1999Użytkownik

#4 | Dodany: 12 Kwiecień 2012 10:34

dzienki taniec
Użytkownik VIP

margo540Użytkownik

#5 | Dodany: 21 Czerwiec 2012 10:57

wow:)dzieki:)
Użytkownik VIP

gabrysia2345Użytkownik

#6 | Dodany: 22 Sierpień 2012 18:45

a dodacie na freakshare ??

Informacje

Jeżeli chcesz skomentować artykuł musisz być zarejestrowany na stronie.