EXSite.pl - Portal ze wszystkim Mamy tutaj wszystko

NIE MASZ JESZCZE KONTA? ZAREJESTRUJ SIĘ ZA DARMO!   
Przypomnij hasło X

Swedish House Mafia vs. Knife Party - Antidote (2011) HD

Dodał: gf3 15 Styczeń 2012 15:22


Swedish House Mafia vs. Knife Party - Antidote (2011) HD
Swedish House Mafia vs. Knife Party - Antidote (2011) HD
Artysta: Swedish House Mafia
Tytuł: Antidote
Rok produkcji: 2011

Swedish House Mafia vs. Knife Party - Antidote (2011) HD

Swedish House Mafia vs. Knife Party - Antidote (2011) HD

Swedish House Mafia vs. Knife Party - Antidote (2011) HD


Uwaga! Linki nie zakodowane tylko dla zarejestrowanych użytkowników!

Nie masz konta? Zarejestruj się za darmo!
----------------
Links are not encoded only for registered users only! Plese login or register!

LUB

Uwaga! Linki nie zakodowane tylko dla zarejestrowanych użytkowników!

Nie masz konta? Zarejestruj się za darmo!
----------------
Links are not encoded only for registered users only! Plese login or register!

Użytkownik VIP

jak13Użytkownik

#1 | Dodany: 15 Styczeń 2012 16:45


Swedish House Mafia vs. Knife Party - Antidote (2011) HD

Download:
Uwaga! Linki nie zakodowane tylko dla zarejestrowanych użytkowników!

Nie masz konta? Zarejestruj się za darmo!
----------------
Links are not encoded only for registered users only! Plese login or register!

Użytkownik VIP

tomkillUżytkownik

#2 | Dodany: 23 Grudzień 2012 19:14

Swedish House Mafia - Dont You Worry Child(1080p)

1080p Full HD MP4 Video


General
Format : MPEG-4
Format profile : Base Media / Version 2
Codec ID : mp42
File size : 54.8 MiB
Duration : 5mn 34s
Overall bit rate mode : Variable

Video
ID : 1
Format : AVC
Format/Info : Advanced Video Codec
Bit rate : 1 250 Kbps
Width : 1 920 pixels
Height : 1 080 pixels
Display aspect ratio : 16:9
Frame rate mode : Constant
Frame rate : 25.000 fps
Color space : YUV
Chroma subsampling : 4:2:0
Bit depth : 8 bits
Scan type : Progressive
Bits/(Pixel*Frame) : 0.024
Stream size : 49.6 MiB (90%)
Writing library : x264 core 128

Audio
ID : 2
Format : AAC
Bit rate mode : Variable
Bit rate : 127 Kbps
Channel(s) : 2 channels
Channel positions : Front: L R
Sampling rate : 48.0 KHz
Stream size : 5.09 MiB (9%)

Subtitles : No


http://download.hellshare.pl/swedish-house-mafia-don-t-you-worry-child-1080p-x264-vx-p2pdl-mp4/10601927/

Informacje

Jeżeli chcesz skomentować artykuł musisz być zarejestrowany na stronie.