EXSite.pl - Portal ze wszystkim Mamy tutaj wszystko

NIE MASZ JESZCZE KONTA? ZAREJESTRUJ SIĘ ZA DARMO!   
Przypomnij hasło X

50 Cent Feat. Eminem, Adam Levine - My Life (2012)

Dodał: bartas9090 10 Grudzień 2012 13:56


50 Cent Feat. Eminem, Adam Levine - My Life (2012)
FULLHD.XviD-RBB90


50 Cent Feat. Eminem, Adam Levine - My Life (2012)



50 Cent Feat. Eminem, Adam Levine - My Life (2012)
Czas: 00:04:04
Video:
Kodek MPEG-4: XviD
Rozdzielczość: 1920 x 782
FPS: 23,976
Bitrate: 4851 kb/s
Audio:
Kodek: MP3
Bitrate: 128 kb/s
Kanały: 2 (stereo)

50 Cent Feat. Eminem, Adam Levine - My Life (2012)


50 Cent Feat. Eminem, Adam Levine - My Life (2012)


HellShare.pl
Uwaga! Linki nie zakodowane tylko dla zarejestrowanych użytkowników!

Nie masz konta? Zarejestruj się za darmo!
----------------
Links are not encoded only for registered users only! Plese login or register!







Zobacz inne moje newsy na EXSite.pl

Użytkownik VIP

THOMAS1985Użytkownik

#1 | Dodany: 10 Grudzień 2012 14:31

ok thx
THOMAS
Użytkownik VIP

tomkillUżytkownik

#2 | Dodany: 15 Styczeń 2013 21:30

Release Title: 50 Cent - My Life (Ft. Eminem, Adam Levine) (2012)


1080p Full HD MP4 Video
+
128 Kbps/VBR M4A Audio

General
Format : MPEG-4
Format profile : Base Media / Version 2
Codec ID : mp42
File size : 38.9 MiB
Duration : 4mn 4s

Video
ID : 1
Format : AVC
Format/Info : Advanced Video Codec
Format profile : High@L5.0
Format settings, CABAC : Yes
Format settings, ReFrames : 6 frames
Codec ID : avc1
Codec ID/Info : Advanced Video Coding
Duration : 4mn 4s
Bit rate mode : Variable
Bit rate : 1 200 Kbps
Width : 1 920 pixels
Height : 1 080 pixels
Display aspect ratio : 16:9
Frame rate mode : Variable
Frame rate : 23.976 fps
Bit depth : 8 bits
Scan type : Progressive
Bits/(Pixel*Frame) : 0.024
Stream size : 35.1 MiB (90%)
Writing library : x264 core 128

Audio
ID : 2
Format : AAC
Duration : 4mn 4s
Bit rate mode : Variable
Bit rate : 125 Kbps
Channel(s) : 2 channels
Channel positions : Front: L R
Sampling rate : 48.0 KHz
Stream size : 3.65 MiB (9%)

Subtitles : No


http://download.hellshare.pl/50-cent-my-life-feat-eminem-adam-levine-2012-m4a-mp4-1080p-x264-vx-p2pdl-rar/11009195/

Informacje

Jeżeli chcesz skomentować artykuł musisz być zarejestrowany na stronie.