EXSite.pl - Portal ze wszystkim Mamy tutaj wszystko

NIE MASZ JESZCZE KONTA? ZAREJESTRUJ SIĘ ZA DARMO!   
Przypomnij hasło X

Lana Del Rey - Born To Die (2012) HD.720p

Dodał: spityy 7 Styczeń 2013 21:09


Lana Del Rey - Born To Die (2012) HD.720p

Lana Del Rey - Born To Die (2012) HD.720p

Lana Del Rey - Born To Die (2012) HD.720p
Forma: MPEG-4
Rozmiar pliku: 44,8 MB
Czas trwania: 4 min.

Format : MPEG-4 at 1.311 Kb/s
Length : 44,8 MB for 4 min. 46s 840ms

Video #0 : AVC at 1.156 Kb/s
Aspect : 1280 x 720 (1.778) at 25.000 fps

Audio #0 : AAC at 152 Kb/s
Infos : 2 kanały, 44,1 KHz



Lana Del Rey - Born To Die (2012) HD.720p
Uwaga! Linki nie zakodowane tylko dla zarejestrowanych użytkowników!

Nie masz konta? Zarejestruj się za darmo!
----------------
Links are not encoded only for registered users only! Plese login or register!



Użytkownik VIP

tomkillUżytkownik

#1 | Dodany: 15 Styczeń 2013 21:36

Release Title: Lana Del Rey - Summertime Sadness (2012)

1080p Full HD MP4 Video
+
128 Kbps/VBR M4A Audio

General
Format : MPEG-4
Format profile : Base Media / Version 2
Codec ID : mp42
File size : 45.0 MiB
Duration : 4mn 42s

Video
ID : 1
Format : AVC
Codec ID/Info : Advanced Video Coding
Duration : 4mn 42s
Bit rate mode : Variable
Bit rate : 1 200 Kbps
Width : 1 920 pixels
Height : 1 080 pixels
Display aspect ratio : 16:9
Frame rate mode : Constant
Frame rate : 25.000 fps
Stream size : 40.5 MiB (90%)
Writing library : x264 core 128

Audio
ID : 2
Format : AAC
Duration : 4mn 42s
Bit rate mode : Variable
Bit rate : 128 Kbps
Sampling rate : 44.1 KHz
Stream size : 4.32 MiB (10%)

Subtitles : No

Screens:

http://www.shotpix.com/images/50154915591227063926.jpg
http://www.shotpix.com/images/18266464156340348857.jpg


http://download.hellshare.pl/lana-del-rey-summertime-sadness-2012-m4a-mp4-1080p-x264-vx-p2pdl-rar/11011097/


New to Pirate Del Bay.

Lana Del Rey - 2011-11-25, Taratata [FR HDTV - 1080i TS]

Video Games (w/no strings attached but the beat goes on)

No strings.
Just the band
and Lana
in your favorite white dress
is the current thing, uh huh.

TARATATA N°406 (Tour. le 09/11/2011 / Diff. France 2 le 25/11/11)

Taratata
France 2
[c/o Europe 1]
Studios de France, B?t 128,
Saint-Denis, France

MPEG-TS HDTV
Overall bitrate: 7943 Kbps
Video: AVC, 1920x1080 (16:9), 25.000 fps, interlaced, bitrate 7162 kbps
Audio: AC-3, 6 channels, 48.0 khz, 384 Kbps
Length : 247 MiB for 4mn 20s 487ms
c/o art-v-k

file in same format as found
@ Torfinder.net

caps c/o Capt. Captastica
7 jpegs @ 2.5 mb incl.
and offered down below

...along with a link to a wonderful Taratata interview
(a file for which was not on offer)
where our lovely Lana gets mighty feisty.

________________________________________


2013-01-11 mikedreams on... Way past bedtime. Got Lana on my mind.

I signed up today for the email-alert of Lana Across America...

There will be love.

This TS is not the richest and sharpest file I have ever seen -- it's AVC not MPEG-2, unfortunately someone was cutting corners? -- but it'll more than do just fine.

And this is with her full band, which is what I was looking for in the first place. And what I hope to see later this year in the USA.

Here Miss Del Rey casts her heavenly hell in light touches, while throwing down some, sweet hot sneers! Enough to wring tears from these tired eyes. For The King lives inside The Queen. She got her Video Game face on.

Anyway, I don't mind at all if the strings come along across America later this year, as long as the beat goes on.

Come what may, as long as this beat poet-singer brings it here, I am there for the taking...

"Take your body downtown, honey... It's all for you."

Enjoy.


Caps...

http://i90.photobucket.com/albums/k256/thewaymouth/Lana/NewPicture1.jpg
http://i90.photobucket.com/albums/k256/thewaymouth/Lana/NewPicture2.jpg
http://i90.photobucket.com/albums/k256/thewaymouth/Lana/NewPicture3.jpg
http://i90.photobucket.com/albums/k256/thewaymouth/Lana/NewPicture4.jpg
http://i90.photobucket.com/albums/k256/thewaymouth/Lana/NewPicture6.jpg
http://i90.photobucket.com/albums/k256/thewaymouth/Lana/NewPicture7.jpg


http://download.hellshare.pl/lana-del-rey-2011-11-25-taratata-fr-hdtv-ts-1080i-video-games-rar/11009509/

Informacje

Jeżeli chcesz skomentować artykuł musisz być zarejestrowany na stronie.