EXSite.pl - Portal ze wszystkim Mamy tutaj wszystko

NIE MASZ JESZCZE KONTA? ZAREJESTRUJ SIĘ ZA DARMO!   
Przypomnij hasło X

[ONLINE] Podróż na Tajemniczą Wyspę / Journey 2: The Mysterious Island (2012) PL.DUB.480p.BRRip.AC3.XviD-SAVED

Dodał: UploadereQ 26 Maj 2012 21:49


[ONLINE] Podróż na Tajemniczą Wyspę / Journey 2: The Mysterious Island (2012)
PL.DUB.480p.BRRip.AC3.XviD-SAVED | Dubbing PL


[ONLINE] Podróż na Tajemniczą Wyspę / Journey 2: The Mysterious Island (2012) PL.DUB.480p.BRRip.AC3.XviD-SAVED


[ONLINE] Podróż na Tajemniczą Wyspę / Journey 2: The Mysterious Island (2012) PL.DUB.480p.BRRip.AC3.XviD-SAVED


czas trwania: 1 godz. 34 min.
gatunek: Familijny, Fantasy, Przygodowy
premiera: 17 lutego 2012 (Polska) 19 stycznia 2012 (świat)
produkcja: USA
reżyseria: Brad Peyton
scenariusz: Brian Gunn, Mark Gunn


[ONLINE] Podróż na Tajemniczą Wyspę / Journey 2: The Mysterious Island (2012) PL.DUB.480p.BRRip.AC3.XviD-SAVED


Sean Anderson (Josh Hutcherson) odbiera zakodowany sygnał o pomoc z wyspy, której nie ma na mapie. Znajduje się tam jego zaginiony dziadek (Michael Caine), którego Sean postanawia odnaleźć. Pomaga mu ojczym (Dwayne Johnson) oraz pilot helikoptera Gabato (Luis Guzman) i jego córka Kailani (Vanessa Hudgens). Razem wyruszają w niebezpieczną podróż, aby odnaleźć tajemniczą wyspę i uratować jej mieszka?ców oraz swego dziadka.


[ONLINE] Podróż na Tajemniczą Wyspę / Journey 2: The Mysterious Island (2012) PL.DUB.480p.BRRip.AC3.XviD-SAVED


Uwaga! Linki nie zakodowane tylko dla zarejestrowanych użytkowników!

Nie masz konta? Zarejestruj się za darmo!
----------------
Links are not encoded only for registered users only! Plese login or register!


Jak ominąć stronę maskującą adf.ly? Nic prostszego!




Miłego Seansu :) Nie zapomnij podziękować!

Użytkownik VIP

UploadereQVIP

#1 | Dodany: 26 Maj 2012 21:49

Zapraszam ok
Użytkownik VIP

Justin_oUżytkownik

#2 | Dodany: 26 Maj 2012 23:35

love taniec
Użytkownik VIP

GigerrUżytkownik

#3 | Dodany: 27 Maj 2012 09:59

ok
Użytkownik VIP

SirdhemionUżytkownik

#4 | Dodany: 27 Maj 2012 11:55

Bez adf...

http://www.putlocker.com/file/067EF86B84D6DE87#
Użytkownik VIP

krzysztof098Użytkownik

#5 | Dodany: 3 Czerwiec 2012 18:45

to jest 2 czesc tajemniczej wyspy ???????? bo z opisu tak jak by 1erwsza
Użytkownik VIP

nowystylnowydillUżytkownik

#6 | Dodany: 4 Czerwiec 2012 19:10

Podróż na Tajemniczą Wyspę (2012) DUBBING PL 480p.BRRip.XviD.AC3

FORMAT............: AVI at 2.398 Kb/s
SIZE..............: 1,58 GB
RUNTIME...........: 1h 34 min. 10s 729ms
VIDEO.............: MPEG-4 Visual at 1.749 Kb/s
RESOLUTION........: 720 x 400 (1.800)
FRAME RATE........: 23.976 fps
AUDIO.............: AC-3 at 640 Kb/s
CHANNEL...........: 6 kanałów, 48,0 KHz


http://turbobit.net/mdmy3ycqbg3n.html
Użytkownik VIP

unclef3st3rUżytkownik

#7 | Dodany: 3 Lipiec 2012 01:04

Podroz.na.tajemnicza.wyspe.2012.PLDUB.BRRip.XviD

General
Format                         : AVI
Format/Info                    : Audio Video Interleave
File size                      : 700 MiB
Duration                       : 1h 34mn
Overall bit rate               : 1 039 Kbps
Writing application            : MEncoder SVN-r1.0~rc3+svn20090426-4.4.3
Writing library                : MPlayer

Video
ID                             : 0
Format                         : MPEG-4 Visual
Format profile                 : Advanced Simple@L5
Format settings, BVOP          : 1
Format settings, QPel          : No
Format settings, GMC           : No warppoints
Format settings, Matrix        : Default (H.263)
Codec ID                       : XVID
Codec ID/Hint                  : XviD
Duration                       : 1h 34mn
Bit rate                       : 906 Kbps
Width                          : 720 pixels
Height                         : 400 pixels
Display aspect ratio           : 16:9
Frame rate                     : 23.976 fps
Color space                    : YUV
Chroma subsampling             : 4:2:0
Bit depth                      : 8 bits
Scan type                      : Progressive
Compression mode               : Lossy
Bits/(Pixel*Frame)             : 0.131
Stream size                    : 610 MiB (87%)
Writing library                : XviD 64

Audio
ID                             : 1
Format                         : AC-3
Format/Info                    : Audio Coding 3
Mode extension                 : CM (complete main)
Format settings, Endianness    : Big
Codec ID                       : 2000
Duration                       : 1h 34mn
Bit rate mode                  : Constant
Bit rate                       : 128 Kbps
Channel(s)                     : 2 channels
Channel positions              : Front: L R
Sampling rate                  : 48.0 KHz
Bit depth                      : 16 bits
Compression mode               : Lossy
Stream size                    : 86.2 MiB (12%)
Alignment                      : Split accross interleaves
Interleave, duration           : 500 ms (11.99 video frames)
Interleave, preload duration   : 500 ms


Rapidgator:
http://rapidgator.net/file/16917735/Podroz.na.tajemnicza.wyspe.2012.PLDUB.BRRip.XviD.avi.html


Turbobit:
http://turbobit.net/ecm9zz2xmowk/Podroz.na.tajemnicza.wyspe.2012.PLDUB.BRRip.XviD.avi.html

Informacje

Jeżeli chcesz skomentować artykuł musisz być zarejestrowany na stronie.