EXSite.pl - Portal ze wszystkim Mamy tutaj wszystko

NIE MASZ JESZCZE KONTA? ZAREJESTRUJ SIĘ ZA DARMO!   
Przypomnij hasło X

świt / Daybreakers (2009) 1080p.BluRay.3D.H-SBS.DTS.x264

Dodał: gacek017 6 Kwiecień 2012 09:31


świt / Daybreakers (2009) 1080p.BluRay.3D.H-SBS.DTS.x264

świt / Daybreakers (2009) 1080p.BluRay.3D.H-SBS.DTS.x264

świt / Daybreakers (2009) 1080p.BluRay.3D.H-SBS.DTS.x264
gatunek: Horror, Akcja
premiera: 11 września 2009 (świat)
reżyseria: Michael Spierig, Peter Spierig
wersja: [180p] [FilmWeb 6,1/10] [Matroska] [9.23 GiB] [1h 37mn]

OPIS FILMU:

Jest rok 2016. Od 10 lat tajemnicza choroba zmienia ludzi w wampiry. Nowa rasa przejęła dominację na Ziemi. Istoty ludzkie są chwytane i hodowane jak zwierzęta, które mają dostarczać niezbędnego pokarmu. Życie nowych istot uzależnione jest od dostępu do krwi zdrowych ludzi, których na świecie pozostaje coraz mniej. Kiedy gatunek ludzki jest bliski wymarcia, wśród wampirów pojawiają się obro?cy ostatnich ludzi.

OBSADA:

Ethan Hawke - Edward Dalton
Willem Dafoe - Lionel 'Elvis' Cormac
Claudia Karvan - Audrey Bennett
Isabel Lucas - Alison Bromley
Michael Dorman - Frankie Dalton
Jay Laga'aia - Senator Turner
Michelle Atkinson - Matka
Paul Sonkkila - Generał Williams
Christopher Kirby - Jarvis Bayom
Emma Randall - Ellie Landon

Format : Matroska
File size : 9.23 GiB
Duration : 1h 37mn
Overall bit rate : 13.5 Mbps
Encoded date : UTC 2011-11-04 21:41:35
Writing application : mkvmerge v4.0.0 ('The Stars were mine'wink.gif gebaut am Jun 6 2010 16:18:42
Writing library : libebml v1.0.0 + libmatroska v1.0.0

Video
ID : 1
Format : AVC
Format/Info : Advanced Video Codec
Format profile : High@L5.1
Format settings, CABAC : Yes
Format settings, ReFrames : 2 frames
Codec ID : V_MPEG4/ISO/AVC
Duration : 1h 37mn
Bit rate : 11.7 Mbps
Width : 1 920 pixels
Height : 1 080 pixels
Display aspect ratio : 16:9
Frame rate : 23.976 fps
Color space : YUV
Chroma subsampling : 4:2:0
Bit depth : 8 bits
Scan type : Progressive
Bits/(Pixel*Frame) : 0.236
Stream size : 8.02 GiB (87%)
Writing library : x264 core
Color primaries : BT.709-5, BT.1361, IEC 61966-2-4, SMPTE RP177
Transfer characteristics : BT.709-5, BT.1361
Matrix coefficients : BT.709-5, BT.1361, IEC 61966-2-4 709, SMPTE RP177

Audio #1
ID : 2
Format : DTS
Format/Info : Digital Theater Systems
Format profile : ES
Codec ID : A_DTS
Duration : 1h 37mn
Bit rate mode : Constant
Bit rate : 755 Kbps
Channel(s) : 6 channels
Channel positions : Front: L C R, Side: L R, LFE
Sampling rate : 48.0 KHz
Bit depth : 16 bits
Compression mode : Lossy
Stream size : 527 MiB (6%)
Language : German

Audio #2
ID : 3
Format : DTS
Format/Info : Digital Theater Systems
Codec ID : A_DTS
Duration : 1h 37mn
Bit rate mode : Constant
Bit rate : 755 Kbps
Channel(s) : 6 channels
Channel positions : Front: L C R, Side: L R, LFE
Sampling rate : 48.0 KHz
Bit depth : 16 bits
Compression mode : Lossy
Stream size : 527 MiB (6%)
Language : English


świt / Daybreakers (2009) 1080p.BluRay.3D.H-SBS.DTS.x264
świt / Daybreakers (2009) 1080p.BluRay.3D.H-SBS.DTS.x264

świt / Daybreakers (2009) 1080p.BluRay.3D.H-SBS.DTS.x264


świt / Daybreakers (2009) 1080p.BluRay.3D.H-SBS.DTS.x264
Uwaga! Linki nie zakodowane tylko dla zarejestrowanych użytkowników!

Nie masz konta? Zarejestruj się za darmo!
----------------
Links are not encoded only for registered users only! Plese login or register!



Użytkownik VIP

cacumenUżytkownik

#1 | Dodany: 6 Kwiecień 2012 11:51

ok brawo thx
Użytkownik VIP

melajuniorUżytkownik

#2 | Dodany: 13 Kwiecień 2012 13:42

jest problem z 10, 11 i 12 plikiem :/ nie moge ich pobrac :(
Użytkownik VIP

brylafmUżytkownik

#3 | Dodany: 13 Kwiecień 2012 22:47

nie polecam, jest to wersja NIEMIECKA bez napisów tego nie da sie oglądać

Informacje

Jeżeli chcesz skomentować artykuł musisz być zarejestrowany na stronie.