EXSite.pl - Portal ze wszystkim Mamy tutaj wszystko

NIE MASZ JESZCZE KONTA? ZAREJESTRUJ SIĘ ZA DARMO!   
Przypomnij hasło X

Najczarniejsza Godzina 3D (SBS) / The Darkest Hour (2011) Lektor PL mini-HD.1080p.x264.Side.by.Side-HOOLIMAN

Dodał: HOOLIMAN 24 Kwiecień 2012 04:15


Najczarniejsza Godzina 3D (SBS) / The Darkest Hour (2011) Lektor PL mini-HD.1080p.x264.Side.by.Side-HOOLIMAN

Najczarniejsza Godzina 3D (SBS) / The Darkest Hour (2011) Lektor PL mini-HD.1080p.x264.Side.by.Side-HOOLIMAN

Najczarniejsza Godzina 3D (SBS) / The Darkest Hour (2011) Lektor PL mini-HD.1080p.x264.Side.by.Side-HOOLIMAN
Film w wersji 3D Side-by-Side.
Do odtworzenia filmu WYMAGANY odpowiedni sprzęt (TV 3D).

Kopia mini-HD 1080p = tylko 3,34 GB


gatunek: Horror, Akcja, Sci-Fi
premiera: 27 stycznia 2012 (Polska) 22 grudnia 2011 (świat)
produkcja: Rosja, USA

Katastroficzny film science fiction w spektakularnym 3D, wyprodukowany przez Timura Bekmambetova, reżysera wizjonerskiej ”Straży nocnej”. Grupa młodych ludzi próbuje przetrwać inwazję przedstawicieli obcej cywilizacji, którzy dysponują niszczącą siłą o nieznanym pochodzeniu i ogromnej mocy. W rolach głównych: Emile Hirsch (”Obywatel Milk”, ”Wszystko za życie”) i Olivia Thirlby (”Juno”, ”Zakochany Nowy Jork”).




Ogólne:

Format : Matroska (MKV)
Rozmiar pliku : 3,34 GB
Czas trwania : 1h 28 min.
Rodzaj całkowitej przepływności bitów : Zmienna
Całkowita przepływność bitów : 5.380 Kb/s

Wideo:

Format : AVC
Profil formatu : High@L5.1
Czas trwania : 1h 28 min.
Rodzaj przepływności : Zmienna
Przepływność bitów : 5.000 Kb/s
Szerokość : 1.920 pikseli
Wysokość : 1.080 pikseli
Szybkość wyświetlania klatek : 23,976 kl/s
Rozmiar strumienia : 3,00 GB (90%)

Audio:

Format : AC-3
Czas trwania : 1h 28 min.
Rodzaj przepływności : Stała
Przepływność bitów : 448 Kb/s
Kanały : 6 kanałów
Rozmieszczenie kanałów : Front: L C R, Side: L R, LFE
Częstotliwość próbkowania : 48,0 KHz
Rozmiar strumienia : 285 MB (8%)
Język : Polski


Dane Naprawcze: 5%

Przykładowa instrukcja jak odpalić film 3D SBS na TV Samsunga
Kopiujesz film na zewnętrzny dysk twardy lub pen-drive i podłączasz do gniazda USB w TV. Na telewizorze pojawią się dwie opcje do wyboru, jedna to aktualizacja oprogramowania a druga Media Play, wybierasz Media Play i otwiera się program samsunga do odtwarzania plików multimedialnych, wchodzisz w zakładkę "filmy" i tam będą wszystkie filmy które masz na Dysku lub Pendrive. Odpalasz film 3D Side-by-Side i na pilocie z telewizora wciskasz guzik 3D a następnie wybierasz tryb "obraz obok obrazu", pozostaje tylko założyć i włączyć okulary i cieszymy się świetnymi efektami 3D :)



Najczarniejsza Godzina 3D (SBS) / The Darkest Hour (2011) Lektor PL mini-HD.1080p.x264.Side.by.Side-HOOLIMAN
Uwaga! Linki nie zakodowane tylko dla zarejestrowanych użytkowników!

Nie masz konta? Zarejestruj się za darmo!
----------------
Links are not encoded only for registered users only! Plese login or register!




Zobacz inne moje newsy na EXSite.pl

Użytkownik VIP

HOOLIMANVIP

#1 | Dodany: 24 Kwiecień 2012 04:15

Użytkownik VIP

hasz22Użytkownik

#2 | Dodany: 24 Kwiecień 2012 08:44

ok
Użytkownik VIP

falunio10Użytkownik

#3 | Dodany: 24 Kwiecień 2012 08:44

co zrobić jak wszystko co ściągnę ma błędy i nie da się tego naprawić. nie pojmuję tego. może ktoś pomoże albo co źle robię ?
Użytkownik VIP

cyber423jkoUżytkownik

#4 | Dodany: 24 Kwiecień 2012 10:12

Witam wszystkich, planuje zakupić pendrive 16GB aby z niego oglądać filmy full hd i 3D na tv LG CINEMA 3D. Mam pytanie, jakie musi mieć minimalne parametry zapisu i odczytu aby to sensownie chodziło bez zacinania?
Użytkownik VIP

Muniek62Użytkownik

#5 | Dodany: 24 Kwiecień 2012 11:32

cyber423jko
Ja mam wszystkie filmy od HOOLIMANA i TV LG LW570S i wszystko elegancko odtwarza tak z pendrive jak i z dysku. nuta
Użytkownik VIP

Stan63Użytkownik

#6 | Dodany: 24 Kwiecień 2012 12:54

ok 5 ok
Użytkownik VIP

kazimsUżytkownik

#7 | Dodany: 24 Kwiecień 2012 18:14


General

Format : Matroska
File size : 4.52 GiB
Duration : 1h 28mn
Overall bit rate : 7 268 Kbps
Movie name : halfsbs
Encoded date : UTC 2012-04-10 18:00:27
Writing application : mkvmerge v4.9.1 ('Ich will') built on Jul 11 2011 23:53:15
Writing library : libebml v1.2.1 + libmatroska v1.1.1

Video #4

ID : 4
Format : AVC
Format/Info : Advanced Video Codec
Format profile : High@L5.1
Format settings, CABAC : Yes
Format settings, ReFrames : 4 frames
Muxing mode : Header stripping
Codec ID : V_MPEG4/ISO/AVC
Duration : 1h 28mn
Bit rate mode : Variable
Bit rate : 5 000 Kbps
Maximum bit rate : 5 000 Kbps
Width : 1 920 pixels
Height : 1 080 pixels
Display aspect ratio : 16:9
Frame rate : 23.976 fps
Color space : YUV
Chroma subsampling : 4:2:0
Bit depth : 8 bits
Scan type : Progressive
Bits/(Pixel*Frame) : 0.101
Stream size : 2.97 GiB (66%)
Writing library : x264 core 120 r2120 0c7dab9

Audio #1

ID : 1
Format : AC-3
Format/Info : Audio Coding 3
Mode extension : CM (complete main)
Muxing mode : Header stripping
Codec ID : A_AC3
Duration : 1h 28mn
Bit rate mode : Constant
Bit rate : 192 Kbps
Channel(s) : 2 channels
Channel positions : Front: L R
Sampling rate : 48.0 KHz
Bit depth : 16 bits
Compression mode : Lossy
Stream size : 122 MiB (3%)
Language : German

Audio #2

ID : 2
Format : DTS
Format/Info : Digital Theater Systems
Muxing mode : Header stripping
Codec ID : A_DTS
Duration : 1h 28mn
Bit rate mode : Constant
Bit rate : 1 510 Kbps
Channel(s) : 6 channels
Channel positions : Front: L C R, Side: L R, LFE
Sampling rate : 48.0 KHz
Bit depth : 24 bits
Compression mode : Lossy
Delay relative to video : 11ms
Stream size : 961 MiB (21%)
Language : English

Audio #3

ID : 3
Format : AC-3
Format/Info : Audio Coding 3
Mode extension : CM (complete main)
Muxing mode : Header stripping
Codec ID : A_AC3
Duration : 1h 28mn
Bit rate mode : Constant
Bit rate : 640 Kbps
Channel(s) : 6 channels
Channel positions : Front: L C R, Side: L R, LFE
Sampling rate : 48.0 KHz
Bit depth : 16 bits
Compression mode : Lossy
Stream size : 407 MiB (9%)
Language : Spanish

PASSWORD= halfsbs

Not: Please DO NOT UPLOAD to other sites


INTERCHANGEABLE LINKS

RAPIDSHARE.COM

http://q.gs/18mZH
http://q.gs/18mZI
http://q.gs/18mZJ
http://q.gs/18mZK
http://q.gs/18mZL


TURBOBIT.NET

http://q.gs/18mZv
http://q.gs/18mZw
http://q.gs/18mZx
http://q.gs/18mZy
http://q.gs/18mZz


RAPIDGATOR.NET

http://q.gs/18mad
http://q.gs/18mae
http://q.gs/18maf
http://q.gs/18mag
http://q.gs/18mah


LUCKYSHARE.NET

http://q.gs/18mbQ
http://q.gs/18mbR
http://q.gs/18mbS
http://q.gs/18mbT
http://q.gs/18mbU


Other 3D Extra Folder Link

NETLOAD.IN

http://adf.ly/7Tqxq


UPLOADED.TO

http://adf.ly/7I1PL


TURBOBIT.NET

http://adf.ly/7jb8y
Użytkownik VIP

spid53Użytkownik

#8 | Dodany: 24 Kwiecień 2012 18:56

cyber423jko,

Ja bym kupił na Twoim miejscu PATRIOT 16GB XT BOOST 200X albo jeszcze większy.Nie kupuj tylko na allegro.Chyba że od pewniaka.
PS3 slim 320GB+500GB
Samsung UE55D8000 55" 3D LED
Samsung Home Theater 5.1- 750 Watt
Użytkownik VIP

RewirowiecUżytkownik

#9 | Dodany: 25 Kwiecień 2012 00:11

HOOLIMAN mam wielką prośbę czy możesz dodawać swoje wstawki na serwer uploaded.to????Z góry dzięki i mam nadzieję że dodasz swoje wstawki na upoaded.to.Pewnie dużo osób też chce Twoje super wstawki na uploaded:)
Użytkownik VIP

nakacu22VIP

#10 | Dodany: 25 Kwiecień 2012 13:36



Najczarniejsza Godzina 3D (SBS) / The Darkest Hour (2011) Lektor PL mini-HD.1080p.Side.by.Side


...::: Dane Techniczne :::..


Ogólne:

Format : Matroska (MKV)
Rozmiar pliku : 3,34 GB
Czas trwania : 1h 28 min.
Rodzaj całkowitej przepływności bitów : Zmienna
Całkowita przepływność bitów : 5.380 Kb/s

Wideo:

Format : AVC
Profil formatu : High@L5.1
Czas trwania : 1h 28 min.
Rodzaj przepływności : Zmienna
Przepływność bitów : 5.000 Kb/s
Szerokość : 1.920 pikseli
Wysokość : 1.080 pikseli
Szybkość wyświetlania klatek : 23,976 kl/s
Rozmiar strumienia : 3,00 GB (90%)

Audio:

Format : AC-3
Czas trwania : 1h 28 min.
Rodzaj przepływności : Stała
Przepływność bitów : 448 Kb/s
Kanały : 6 kanałów
Rozmieszczenie kanałów : Front: L C R, Side: L R, LFE
Częstotliwość próbkowania : 48,0 KHz
Rozmiar strumienia : 285 MB (8%)
Język : Polski


Dane Naprawcze: 5%

Przykładowa instrukcja jak odpalić film 3D SBS na TV Samsunga
Kopiujesz film na zewnętrzny dysk twardy lub pen-drive i podłączasz do gniazda USB w TV. Na telewizorze pojawią się dwie opcje do wyboru, jedna to aktualizacja oprogramowania a druga Media Play, wybierasz Media Play i otwiera się program samsunga do odtwarzania plików multimedialnych, wchodzisz w zakładkę "filmy" i tam będą wszystkie filmy które masz na Dysku lub Pendrive. Odpalasz film 3D Side-by-Side i na pilocie z telewizora wciskasz guzik 3D a następnie wybierasz tryb "obraz obok obrazu", pozostaje tylko założyć i włączyć okulary i cieszymy się świetnymi efektami 3D :)





Uwaga! Linki nie zakodowane tylko dla zarejestrowanych użytkowników!

Nie masz konta? Zarejestruj się za darmo!
----------------
Links are not encoded only for registered users only! Plese login or register!
Powracam ;)
Użytkownik VIP

Graby2006Użytkownik

#11 | Dodany: 25 Kwiecień 2012 17:11

a na netload Hooliman będziesz wrzucał ?czy już nie będzie nic na to wrzucane??
Użytkownik VIP

romi5722Użytkownik

#12 | Dodany: 25 Kwiecień 2012 19:22

thx
Użytkownik VIP

alienozUżytkownik

#13 | Dodany: 26 Kwiecień 2012 19:35

Graby2006,
też się o to pytałem, netload nie płaci już za pobieranie, więc umrze śmiercią naturalną,szkoda... pzdr
Użytkownik VIP

stasimonUżytkownik

#14 | Dodany: 27 Kwiecień 2012 04:04

Witam,

Ktos przy pierwszej wstawce Hoolimana w wersji angielskiej pisal, ze sa zamienione strony lewa z prawa. Czy w tej wstawce jest to poprawione czy nie? Ogladam filmy na projektorach i nie mam mozliwosci zamiany miejscami polowek obrazow... :(
Użytkownik VIP

raszka55Użytkownik

#15 | Dodany: 27 Kwiecień 2012 23:28


Najczarniejsza godzina / The Darkest Hour (2011) 480p.BRRip.XviD / Lektor PL


Dane Techniczne :

Rozmiar: 1.53 GB
Audio: 6 channels | 448 Kbps Constant
Video: 720?304px 2.35 | XviD (AVI) | 1 995 Kbps | 23.976 fps



Hellshare:
Uwaga! Linki nie zakodowane tylko dla zarejestrowanych użytkowników!

Nie masz konta? Zarejestruj się za darmo!
----------------
Links are not encoded only for registered users only! Plese login or register!
Użytkownik VIP

tomeczek2219Użytkownik

#16 | Dodany: 28 Kwiecień 2012 16:48

Najczarniejsza godzina / The Darkest Hour (2011) PL.BRRip.XviD-BiDA / Lektor PL [700 MB]


Dane techniczne:


Release: PL.BRRip.XviD-BiDA
Waga: 700 MB
Audio: BD [lektor PL]
VIDEO: [XVID] 720x304 24bpp 23.976 fps 954.6 kbps (116.5 kbyte/s)
AUDIO: 48000 Hz, 2 ch, s16le, 128.0 kbit/8.33% (ratio: 16000->192000)


TurboBit
Uwaga! Linki nie zakodowane tylko dla zarejestrowanych użytkowników!

Nie masz konta? Zarejestruj się za darmo!
----------------
Links are not encoded only for registered users only! Plese login or register!
smile
Użytkownik VIP

Avatar1210Użytkownik

#17 | Dodany: 30 Kwiecień 2012 11:39

The.Darkest.Hour.2011.PL.BRRip.XviD - Avatar1210

Dane techniczne:


HellShare:
Uwaga! Linki nie zakodowane tylko dla zarejestrowanych użytkowników!

Nie masz konta? Zarejestruj się za darmo!
----------------
Links are not encoded only for registered users only! Plese login or register!
✔ Pewny Upload - linki wygasły lub potrzebujesz jakiegoś filmu? Pisz na priv. ;-)
Użytkownik VIP

IreniaUżytkownik

#18 | Dodany: 1 Maj 2012 18:32

ok thx
Użytkownik VIP

brekuUżytkownik

#19 | Dodany: 6 Maj 2012 10:38

Najczarniejsza godzina / The Darkest Hour (2011) BRRip Lektor Pl.XviD-BiDA



Dane Techniczne
Release: PL.BRRip.XviD-BiDA
Waga: 700 MB
Audio: BD [lektor PL]
VIDEO: [XVID] 720x304 24bpp 23.976 fps 954.6 kbps (116.5 kbyte/s)
AUDIO: 48000 Hz, 2 ch, s16le, 128.0 kbit/8.33% (ratio: 16000->192000)

V: BiDA A: BB [thx!]

Pliki po 400 MB
Uwaga! Linki nie zakodowane tylko dla zarejestrowanych użytkowników!

Nie masz konta? Zarejestruj się za darmo!
----------------
Links are not encoded only for registered users only! Plese login or register!
Użytkownik VIP

przemcio12345Użytkownik

#20 | Dodany: 25 Maj 2013 18:35

Najczarniejsza Godzina 3D / The Darkest Hour (2011)
DUAL.mini-HD.1080p.Over-Under.BluRay.x264.AC3-LEON 345 - Lektor i Napisy PL

General
Format : Matroska
File size : 3.67 GiB
Duration : 1h 28mn
Overall bit rate : 5 904 Kbps
Movie name : DARKEST_HOUR.Title1.Bluray3DRip
Encoded date : UTC 2012-04-25 16:00:17
Writing application : mkvmerge v5.2.1 ('A Far Off Place') built on Jan 2 2012 23:21:10
Writing library : libebml v1.2.3 + libmatroska v1.3.0

Źródło:The.Darkest.Hour.2011.3D.BluRay.1080p.AVC.DTS-HD.MA5.1-CHDBits

Video
ID : 1
Format : AVC
Format/Info : Advanced Video Codec
Format profile : High@L5.1
Format settings, CABAC : Yes
Format settings, ReFrames : 2 frames
Muxing mode : Container profile=Unknown@5.1
Codec ID : V_MPEG4/ISO/AVC
Duration : 1h 28mn
Bit rate : 4 891 Kbps
Width : 1 920 pixels
Height : 1 080 pixels
Display aspect ratio : 16:9
Frame rate : 23.976 fps
Resolution : 8 bits
Colorimetry : 4:2:0
Scan type : Progressive
Bits/(Pixel*Frame) : 0.098
Stream size : 3.04 GiB (83%)
Title : Darkest Hour(Leon 345)dual audio
Writing library : x264 core
Color primaries : BT.709-5, BT.1361, IEC 61966-2-4, SMPTE RP177
Transfer characteristics : BT.709-5, BT.1361
Matrix coefficients : BT.709-5, BT.1361, IEC 61966-2-4 709, SMPTE RP177

Audio #1
ID : 2
Format : AC-3
Format/Info : Audio Coding 3
Codec ID : A_AC3
Duration : 1h 28mn
Bit rate mode : Constant
Bit rate : 448 Kbps
Channel(s) : 6 channels
Channel positions : Front: L C R, Side: L R, LFE
Sampling rate : 48.0 KHz
Stream size : 285 MiB (8%)
Language : Polish

Audio #2
ID : 3
Format : AC-3
Format/Info : Audio Coding 3
Codec ID : A_AC3
Duration : 1h 28mn
Bit rate mode : Constant
Bit rate : 448 Kbps
Channel(s) : 6 channels
Channel positions : Front: L C R, Side: L R, LFE
Sampling rate : 48.0 KHz
Stream size : 285 MiB (8%)
Language : English


http://egofiles.com/Bof12KF1i8bXWZUo/DH3D.part1.rar
http://egofiles.com/USuWGdk5lyy3BWGt/DH3D.part2.rar
http://egofiles.com/nBDfWxmwUHtPmbpl/DH3D.part3.rar

Informacje

Jeżeli chcesz skomentować artykuł musisz być zarejestrowany na stronie.