EXSite.pl - Portal ze wszystkim Mamy tutaj wszystko

NIE MASZ JESZCZE KONTA? ZAREJESTRUJ SIĘ ZA DARMO!   
Przypomnij hasło X

Podróż na Tajemniczą Wyspę 3D (SBS) / Journey 2: The Mysterious Island (2012) Dubbing PL mini-HD.1080p.x264.Side.by.Side-HOOLIMAN

Dodał: HOOLIMAN 24 Maj 2012 08:52


Podróż na Tajemniczą Wyspę 3D (SBS) / Journey 2: The Mysterious Island (2012) Dubbing PL mini-HD.1080p.x264.Side.by.Side-HOOLIMAN

Podróż na Tajemniczą Wyspę 3D (SBS) / Journey 2: The Mysterious Island (2012) Dubbing PL mini-HD.1080p.x264.Side.by.Side-HOOLIMAN

Podróż na Tajemniczą Wyspę 3D (SBS) / Journey 2: The Mysterious Island (2012) Dubbing PL mini-HD.1080p.x264.Side.by.Side-HOOLIMAN
Film w wersji 3D Side-by-Side.
Do odtworzenia filmu WYMAGANY odpowiedni sprzęt (TV 3D).


gatunek: Familijny, Fantasy, Komedia, Przygodowy
premiera: 17 lutego 2012 (Polska) 19 stycznia 2012 (świat)
produkcja: USA

Sean Anderson (Josh Hutcherson) odbiera zakodowany sygnał o pomoc z wyspy, której nie ma na mapie. Znajduje się tam jego zaginiony dziadek (Michael Caine), którego Sean postanawia odnaleźć. Pomaga mu ojczym (Dwayne Johnson) oraz pilot helikoptera Gabato (Luis Guzman) i jego córka Kailani (Vanessa Hudgens). Razem wyruszają w niebezpieczną podróż, aby odnaleźć tajemniczą wyspę i uratować jej mieszka?ców oraz swego dziadka

Ogólne:

Format : Matroska (MKV)
Rozmiar pliku : 3,67 GB
Czas trwania : 1h 34 min.
Rodzaj całkowitej przepływności bitów : Zmienna
Całkowita przepływność bitów : 5.585 Kb/s

Wideo:

Format : AVC
Profil formatu : High@L5.1
Czas trwania : 1h 34 min.
Rodzaj przepływności : Zmienna
Przepływność bitów : 5.000 Kb/s
Szerokość : 1.920 pikseli
Wysokość : 1.080 pikseli
Proporcje obrazu : 16:9
Szybkość wyświetlania klatek : 23,976 kl/s
Rozmiar strumienia : 3,18 GB (87%)

Audio:

Format : AC-3
Czas trwania : 1h 34 min.
Rodzaj przepływności : Stała
Przepływność bitów : 640 Kb/s
Kanały : 6 kanałów
Rozmieszczenie kanałów : Front: L C R, Side: L R, LFE
Częstotliwość próbkowania : 48,0 KHz
BitDepth/String : 16 bitów
Rozmiar strumienia : 431 MB (11%)
Język : Polski

Dane Naprawcze: 5%

Przykładowa instrukcja jak odpalić film 3D SBS na TV Samsunga

Kopiujesz film na zewnętrzny dysk twardy lub pen-drive i podłączasz do gniazda USB w TV. Na telewizorze pojawią się dwie opcje do wyboru, jedna to aktualizacja oprogramowania a druga Media Play, wybierasz Media Play i otwiera się program samsunga do odtwarzania plików multimedialnych, wchodzisz w zakładkę "filmy" i tam będą wszystkie filmy które masz na Dysku lub Pendrive. Odpalasz film 3D Side-by-Side i na pilocie z telewizora wciskasz guzik 3D a następnie wybierasz tryb "obraz obok obrazu", pozostaje tylko założyć i włączyć okulary i cieszymy się świetnymi efektami 3D :)



Podróż na Tajemniczą Wyspę 3D (SBS) / Journey 2: The Mysterious Island (2012) Dubbing PL mini-HD.1080p.x264.Side.by.Side-HOOLIMAN
Uwaga! Linki nie zakodowane tylko dla zarejestrowanych użytkowników!

Nie masz konta? Zarejestruj się za darmo!
----------------
Links are not encoded only for registered users only! Plese login or register!




Zobacz inne moje newsy na EXSite.pl

Użytkownik VIP

HOOLIMANVIP

#1 | Dodany: 24 Maj 2012 08:52

Użytkownik VIP

qzynUżytkownik

#2 | Dodany: 24 Maj 2012 09:11

No doczekałem się w ko?cu ;) THX HOOLi ;)
LG47LW5400
Użytkownik VIP

cacumenUżytkownik

#3 | Dodany: 24 Maj 2012 09:54

A Ntl kiedy dojdzie belay ??
Użytkownik VIP

Daniel2865Użytkownik

#4 | Dodany: 24 Maj 2012 10:02

Cartera Dajcie w Mini HD :-)
Użytkownik VIP

wojciech63Użytkownik

#5 | Dodany: 24 Maj 2012 11:35

Czy możesz wziąć pod uwagę FROGUP. Pięknie działa i szybko schodzi . Dzięki !
Użytkownik VIP

yodynka12Użytkownik

#6 | Dodany: 24 Maj 2012 14:49

Czekałem na Twoje Mini. Jesteś GOśĆ. Będziesz wstawiał Cartera w Mini?
Użytkownik VIP

IreniaUżytkownik

#7 | Dodany: 24 Maj 2012 15:40

thx
Użytkownik VIP

qbaso2Użytkownik

#8 | Dodany: 24 Maj 2012 16:44

również dzięki Hooli, kiedyś napisałęm że czekam z utesknieniem na ten film i już jest:)))), ale mam pytanie jeszcze jedno na które jeszcze nikt nie udzielił odpowiedzi, nie wiem czy specjalnie czy nie:). Peoszę o odpowiedź czym rózni się wersja mini hd od wersjii 10gigowej, rozmiar pliku jest nieporównywalnie mniejszy wiec na czym to sie odbija, prosze o jakieś szczegóły na ten temat. pozdro
Użytkownik VIP

dajmitujacitezdamUżytkownik

#9 | Dodany: 24 Maj 2012 17:22

Zgadnij? Na jakości traci , efekty 3D są gorsze , nie polecam mini. Jeżeli chcecie ogladac 3D w pełni i cieszyć się najlepszą jakościa niestety trzeba ściagac te wersje ponad 10 gb
Użytkownik VIP

sajmerUżytkownik

#10 | Dodany: 24 Maj 2012 18:28

3d efekty nie mają nic wspólnego z wersja mini HD wiec nie wprowadzaj w błąd , tylko mniejszy bitrate więc teoretycznie gorsza jakość - moim zdaniem mHD najlepsze do bajek animowanych - nie przeszkadza tak kompresja. Ażeby cieszyć się "w pełni" to trzeba oglądać z BD 3D :)
Użytkownik VIP

daro408Użytkownik

#11 | Dodany: 24 Maj 2012 20:06

NETLOAD thx
Użytkownik VIP

FAJA1971Użytkownik

#12 | Dodany: 24 Maj 2012 21:05

thx
Użytkownik VIP

qbaso2Użytkownik

#13 | Dodany: 24 Maj 2012 21:32

Z podziękowaniem kurde ja w sumie aż takiej różnicy nie widzę ale może i tak jest jak piszeszecie, wiec przestaje ściągać wersje mini. Pozdro
Użytkownik VIP

oscar63Użytkownik

#14 | Dodany: 24 Maj 2012 23:16

Efekty 3d w wersji mini są takie same jak w wersji full słabszy jest kontrast
(takie lekkie jakby zamglenie) w bajkach nie ma praktycznie żadnej różnicy,
generalnie wszystko zależy od wielkości tv na 40 cali jest do przyjęcia ale większe rozmiary to już inna sprawa.Najlepiej sprawdzić sobie jakiegokolwiek blue-ray 3d i porównać z wersjami full i mini wtedy można określić jaka wersja będzie najbardziej odpowiednia dla użytkownika.
Pozdrawiam
Użytkownik VIP

Daniel2865Użytkownik

#15 | Dodany: 25 Maj 2012 10:17

Co racja to racja-spadku jakości gołym okiem wogóle nie widać, a efekty 3D nie mogą różnić się od oryginału :-)
Dla mnie Mini HD to rewelacja bo mam wszystko czego potrzebuje w jednym i nie muszę długo pobierać i tracić miejsca żeby sobie obejrzeć :-)
Użytkownik VIP

jacekhozaUżytkownik

#16 | Dodany: 25 Maj 2012 10:28

pirdol pierdol ja sie zdrzemne
Użytkownik VIP

Daniel2865Użytkownik

#17 | Dodany: 25 Maj 2012 10:53

zazdrościsz bo ty pewnie nie masz kogo pierdlić co :-)
Widszisz jaki farciaz ze mnie
Użytkownik VIP

stereo02Użytkownik

#18 | Dodany: 25 Maj 2012 11:06

mam pytanie co jest z tymi serwerami hellshare bo mi wyskakuje możesz pobrać jeden plik na24godziny a tak ie było
Użytkownik VIP

dragon_masterUżytkownik

#19 | Dodany: 25 Maj 2012 11:50

Dobrze że Hooli wrócił na dobrą drogę i daje teraz SBS nie OU Tyle czasu robił SBS i jakoś wszyscy sobie chwalili jego wersje
Użytkownik VIP

adi93plUżytkownik

#20 | Dodany: 25 Maj 2012 14:36

Był bym wdzięczny jak filmy Hooliman'a lądowały by na depositfiles.com
Użytkownik VIP

dajmitujacitezdamUżytkownik

#21 | Dodany: 25 Maj 2012 16:56

Sam piepszysz polski88 , oglądałem akurat podróż do wnętrza ziemi mini i normalne , uważasz że jak film z 10 gb robi się 3 gb to nie ma żadnej różnicy ? No proszę Cię.... Utrata jakości jest i tyle , przez to nie ma aż tak fajnych efektów, piepszyć sobie możesz co chcesz ,ja nie ściagam mini i tyle , a gadasz tak bo sam ściągasz miniHD i każdy chwali to co swoje.
Użytkownik VIP

robmaleUżytkownik

#22 | Dodany: 25 Maj 2012 18:11

mam przyklady w ktorych w minihd sa plytsze efekty 3d nie ma takiej glebi obejrzyjcie alicje w krainie czarow w mini i bez sami zobaczycie w niektorych filmach racja nie ma roznicy ale jesli ma cos sie "przemiescic poza ekran" jak w alicji gdzie grubasy spaceruja i jak smoki lataja to wtedy niestety w minihd jest to nie tak fajne jak w normlanej wersjii -- sam tez sciagam minihd bo mniej miejsca ale cos za cos cudow nie ma i nie ma sie co spinac jeden lubi tak inny inaczej po to jest tyle roznych wersji aby kazdy byl zadowolony
Użytkownik VIP

Daniel2865Użytkownik

#23 | Dodany: 25 Maj 2012 19:56

Dokładnie ważne to zadowolenie :-)
Każdy pobiera to co lubi
Użytkownik VIP

niunio-roUżytkownik

#24 | Dodany: 25 Maj 2012 21:05

bądzcie ludzmi dajcie jakiś normany upload
Użytkownik VIP

daro408Użytkownik

#25 | Dodany: 25 Maj 2012 22:45

NETLOAD thx
Użytkownik VIP

romi5722Użytkownik

#26 | Dodany: 25 Maj 2012 22:51

Dzięki HOOLIMAN,wszystkie filmy śmigają jak należy,nie rozumie w/w i tych narzeka?,nie podobają wam się wersje mini-to nie ściągajcie ok thx

A co do serwerów to polecam TwojLimit lub rapidox
Użytkownik VIP

Qbek10Użytkownik

#27 | Dodany: 26 Maj 2012 04:38

Proszę pomóżcie. Jak ściągać z NETLOAD ?
Użytkownik VIP

bednarusUżytkownik

#28 | Dodany: 26 Maj 2012 06:53

czy może ktoś te mini dać na inne serwery
Użytkownik VIP

kazimsUżytkownik

#29 | Dodany: 26 Maj 2012 12:48


General

Format : Matroska
File size : 6.03 GiB
Duration : 1h 34mn
Overall bit rate : 5 137 Kbps
Encoded date : UTC 2012-05-24 22:47:08
Writing application : mkvmerge v5.0.1 ('Es ist Sommer') built on Oct 23 2011 00:46:40
Writing library : libebml v1.2.2 + libmatroska v1.3.0

Video #1

ID : 1
Format : AVC
Format/Info : Advanced Video Codec
Format profile : High@L5.1
Format settings, CABAC : Yes
Format settings, ReFrames : 4 frames
Format settings, GOP : M=4, N=48
Muxing mode : Header stripping
Codec ID : V_MPEG4/ISO/AVC
Duration : 1h 34mn
Bit rate mode : Variable
Bit rate : 5 000 Kbps
Maximum bit rate : 5 000 Kbps
Width : 1 920 pixels
Height : 1 080 pixels
Display aspect ratio : 16:9
Frame rate : 23.976 fps
Color space : YUV
Chroma subsampling : 4:2:0
Bit depth : 8 bits
Scan type : Progressive
Bits/(Pixel*Frame) : 0.101
Stream size : 3.19 GiB (94%)
Writing library : x264 core 120 r2120 0c7dab9

Audio #2

Language : English - Polish - Spanish - Turkish - Italian - German

PASSWORD= halfsbs

Not: Please DO NOT UPLOAD to other sites


TURBOBIT.NET

http://q.gs/1J9kE
http://q.gs/1J9kF
http://q.gs/1J9kG
http://q.gs/1J9kH
http://q.gs/1J9kI
http://q.gs/1J9kJ


Other 3D Films Extra Folder Link

Netload.in

http://adf.ly/7Tqxq


Ul.To

http://adf.ly/7I1PL


Turbobit

http://adf.ly/7jb8y
Użytkownik VIP

betinasUżytkownik

#30 | Dodany: 27 Maj 2012 12:37

no tak sami fachowcy ,kupa smiechu,wystarczy podziekowac wstawiajacemu albo cos ofilmie.........
Użytkownik VIP

Stan63Użytkownik

#31 | Dodany: 27 Maj 2012 14:30

ok 5 ok
Użytkownik VIP

mborowcUżytkownik

#32 | Dodany: 28 Maj 2012 12:23

HOOLIMAN
Pliki z SHELLSHARE zostały usunięte , czy tylko ja tak mam.
Został mi tylko jeden plik do ściągnięcia i kicha.
Użytkownik VIP

ig2205Użytkownik

#33 | Dodany: 28 Maj 2012 12:43

Niestety, nie tylko Ty tak masz.
Użytkownik VIP

udko19Użytkownik

#34 | Dodany: 28 Maj 2012 15:14

usuniete
Użytkownik VIP

kilerbUżytkownik

#35 | Dodany: 28 Maj 2012 15:15

świetnie, jeden link jeszcze
Użytkownik VIP

piotrada14Użytkownik

#36 | Dodany: 28 Maj 2012 19:27

LINKI WYGASŁY recourse
Użytkownik VIP

bednarusUżytkownik

#37 | Dodany: 29 Maj 2012 04:19

Podróż na Tajemniczą Wyspę 3D (SBS) / Journey 2: The Mysterious Island (2012) Dubbing PL mini-HD.1080p.x264.Side.by.Side-HOOLIMAN linki wygasły na SHELLSHARE. Czy można prosić o reup brakuje mi ostatniego linka.
Użytkownik VIP

brutepassUżytkownik

#38 | Dodany: 29 Maj 2012 09:24

proszę o reupload...

hell linki WYGASŁY...(

pozdr
Użytkownik VIP

WIELBLADUżytkownik

#39 | Dodany: 30 Maj 2012 13:10

hellshere linki zdechły!!!!!
Użytkownik VIP

lukadulachUżytkownik

#40 | Dodany: 30 Maj 2012 18:17

kurde linki nie aktywne :(
Użytkownik VIP

hellspawnUżytkownik

#41 | Dodany: 1 Czerwiec 2012 22:09

wrzuci ktoś wersje 3D ale bez polskiego dubbingu bo tego słuchać się nie da
Czysta wersja angielska thx
Użytkownik VIP

amak77Użytkownik

#42 | Dodany: 2 Czerwiec 2012 09:12

posiadam część1,2 oraz 4. Skąd mogę ściągnąć część 3 (mini HD)?
Użytkownik VIP

kilerbUżytkownik

#43 | Dodany: 2 Czerwiec 2012 11:41

Mi brakuje 2 skąd?!
Użytkownik VIP

Freedom35VIP

#44 | Dodany: 3 Czerwiec 2012 14:49

- Podróż na Tajemniczą Wyspę / Journey 2: The Mysterious Island 3D (2012) PL.1080p.Half.SBS.BluRay.x264.DTS-FRUGO DUBBiNG PL -

- iNFO - TECH -
                  
Format            : Matroska at 15,6 Mb/s
Length            : 10,3 GB for 1h 34 min. 11s 680ms

Video #0          : AVC at 13,1 Mb/s
Aspect            : 1920 x 1080 (1.778) at 23.976 fps

Audio #0          : AC-3 at 640 Kb/s
Infos             : 6 kanaw, 48,0 KHz
Language          : POL DUBBiNG

Audio #1          : DTS at 1.561 Kb/s
Infos             : 6 kanaw, 48,0 KHz
Language          : ENG


- Można pobierać na przemian | Bez hasła -

Uwaga! Linki nie zakodowane tylko dla zarejestrowanych użytkowników!

Nie masz konta? Zarejestruj się za darmo!
----------------
Links are not encoded only for registered users only! Plese login or register!


- Pojedynczy link |Bez hasła | Bez archiwum -

Uwaga! Linki nie zakodowane tylko dla zarejestrowanych użytkowników!

Nie masz konta? Zarejestruj się za darmo!
----------------
Links are not encoded only for registered users only! Plese login or register!
Użytkownik VIP

nowystylnowydillUżytkownik

#45 | Dodany: 4 Czerwiec 2012 19:03

Podróż na Tajemniczą Wyspę (2012) DUBBING PL 480p.BRRip.XviD.AC3

FORMAT............: AVI at 2.398 Kb/s
SIZE..............: 1,58 GB
RUNTIME...........: 1h 34 min. 10s 729ms
VIDEO.............: MPEG-4 Visual at 1.749 Kb/s
RESOLUTION........: 720 x 400 (1.800)
FRAME RATE........: 23.976 fps
AUDIO.............: AC-3 at 640 Kb/s
CHANNEL...........: 6 kanałów, 48,0 KHz


http://turbobit.net/mdmy3ycqbg3n.html
Użytkownik VIP

grad3dUżytkownik

#46 | Dodany: 8 Czerwiec 2012 06:22

Podróż na Tajemniczą Wyspę 3D (OU) / Journey 2: The Mysterious Island (2012) Dubbing PL
mini-HD.1080p.x264.Over-Under-DJP


.::DANE TECHNICZNE || RELEASE iNFO::.

Ogólne

Format : Matroska (MKV)
Rozmiar pliku : 3,71 GB
Czas trwania : 1h 34 min.
Całkowita przepływność bitów : 5.638 Kb/s

Wideo:

Format : AVC
Profil formatu : High@L4.1
Czas trwania : 1h 34 min.
Przepływność bitów : 5.000 Kb/s
Szerokość : 1.920 pikseli
Wysokość : 1.080 pikseli
Proporcje obrazu : 16:9
Szybkość wyświetlania klatek : 23,976 kl/s
Rozmiar strumienia : 3,21 GB (87%)

Audio:

Format : AC-3
Czas trwania : 1h 34 min.
Rodzaj przepływności : Stała
Przepływność bitów : 640 Kb/s
Kanały : 6 kanałów
Rozmieszczenie kanałów : Front: L C R, Side: L R, LFE
Częstotliwość próbkowania : 48,0 KHz
BitDepth/String : 16 bitów
Rozmiar strumienia : 431 MB (11%)
Język : Polski


..::DOWNLOAD || 500 MB PARTS!::..


FROGUP
Uwaga! Linki nie zakodowane tylko dla zarejestrowanych użytkowników!

Nie masz konta? Zarejestruj się za darmo!
----------------
Links are not encoded only for registered users only! Plese login or register!
Użytkownik VIP

luzzak24Użytkownik

#47 | Dodany: 11 Czerwiec 2012 20:12

Podróż na Tajemniczą Wyspę 3D (OU) / Journey 2: The Mysterious Island (2012)
Dubbing PL mini-HD.1080p.x264

Dane techniczne:

Format : Matroska (MKV)
Rozmiar pliku : 3,71 GB
Czas trwania : 1h 34 min.
Całkowita przepływność bitów : 5.638 Kb/s

Wideo:

Format : AVC
Profil formatu : High@L4.1
Czas trwania : 1h 34 min.
Przepływność bitów : 5.000 Kb/s
Szerokość : 1.920 pikseli
Wysokość : 1.080 pikseli
Proporcje obrazu : 16:9
Szybkość wyświetlania klatek : 23,976 kl/s
Rozmiar strumienia : 3,21 GB (87%)

Audio:

Format : AC-3
Czas trwania : 1h 34 min.
Rodzaj przepływności : Stała
Przepływność bitów : 640 Kb/s
Kanały : 6 kanałów
Rozmieszczenie kanałów : Front: L C R, Side: L R, LFE
Częstotliwość próbkowania : 48,0 KHz
BitDepth/String : 16 bitów
Rozmiar strumienia : 431 MB (11%)
Język : Polski


Download linki (4 serwisy do wyboru, można pobierać na przemian):

~ HellShare.pl
Uwaga! Linki nie zakodowane tylko dla zarejestrowanych użytkowników!

Nie masz konta? Zarejestruj się za darmo!
----------------
Links are not encoded only for registered users only! Plese login or register!

lub

~ Turbobit.net
Uwaga! Linki nie zakodowane tylko dla zarejestrowanych użytkowników!

Nie masz konta? Zarejestruj się za darmo!
----------------
Links are not encoded only for registered users only! Plese login or register!

lub

~ Rapidgator.net
Uwaga! Linki nie zakodowane tylko dla zarejestrowanych użytkowników!

Nie masz konta? Zarejestruj się za darmo!
----------------
Links are not encoded only for registered users only! Plese login or register!

lub

~ FileSega.com
Uwaga! Linki nie zakodowane tylko dla zarejestrowanych użytkowników!

Nie masz konta? Zarejestruj się za darmo!
----------------
Links are not encoded only for registered users only! Plese login or register!



Hasło: (dla wszystkich wstawek na Exsite.pl)

engm
Użytkownik VIP

mati9815Użytkownik

#48 | Dodany: 2 Lipiec 2012 18:51

Podróż na tajemniczą wyspę / Journey 2: The Mysterious Island (2012) PLDUB.BRRip.XviD-SZARiK
DUBBING PL

http://rapidgator.net/file/22549626/journey.2.the.mysterious.island.2012.pldub.brrip.xvid-b89.avi.html
Użytkownik VIP

unclef3st3rUżytkownik

#49 | Dodany: 3 Lipiec 2012 00:56

Podroz.na.tajemnicza.wyspe.2012.PLDUB.BRRip.XviD

General
Format                         : AVI
Format/Info                    : Audio Video Interleave
File size                      : 700 MiB
Duration                       : 1h 34mn
Overall bit rate               : 1 039 Kbps
Writing application            : MEncoder SVN-r1.0~rc3+svn20090426-4.4.3
Writing library                : MPlayer

Video
ID                             : 0
Format                         : MPEG-4 Visual
Format profile                 : Advanced Simple@L5
Format settings, BVOP          : 1
Format settings, QPel          : No
Format settings, GMC           : No warppoints
Format settings, Matrix        : Default (H.263)
Codec ID                       : XVID
Codec ID/Hint                  : XviD
Duration                       : 1h 34mn
Bit rate                       : 906 Kbps
Width                          : 720 pixels
Height                         : 400 pixels
Display aspect ratio           : 16:9
Frame rate                     : 23.976 fps
Color space                    : YUV
Chroma subsampling             : 4:2:0
Bit depth                      : 8 bits
Scan type                      : Progressive
Compression mode               : Lossy
Bits/(Pixel*Frame)             : 0.131
Stream size                    : 610 MiB (87%)
Writing library                : XviD 64

Audio
ID                             : 1
Format                         : AC-3
Format/Info                    : Audio Coding 3
Mode extension                 : CM (complete main)
Format settings, Endianness    : Big
Codec ID                       : 2000
Duration                       : 1h 34mn
Bit rate mode                  : Constant
Bit rate                       : 128 Kbps
Channel(s)                     : 2 channels
Channel positions              : Front: L R
Sampling rate                  : 48.0 KHz
Bit depth                      : 16 bits
Compression mode               : Lossy
Stream size                    : 86.2 MiB (12%)
Alignment                      : Split accross interleaves
Interleave, duration           : 500 ms (11.99 video frames)
Interleave, preload duration   : 500 ms


Rapidgator:
http://rapidgator.net/file/16917735/Podroz.na.tajemnicza.wyspe.2012.PLDUB.BRRip.XviD.avi.html


Turbobit:
http://turbobit.net/ecm9zz2xmowk/Podroz.na.tajemnicza.wyspe.2012.PLDUB.BRRip.XviD.avi.html
Użytkownik VIP

AdBlock1234Użytkownik

#50 | Dodany: 23 Listopad 2012 19:39

Podroz.na.Tajemnicza.Wyspe.2012.PLDUB.MD.DVDRip.XviD | Dubbing PL

Dane techniczne:
Format            : AVI at 1 028 Kbps
Length            : 692 MiB for 1h 34mn 8s 810ms

Video #0          : MPEG-4 Visual at 895 Kbps
Aspect            : 640 x 352 (1.818) at 23.976 fps

Audio #0          : MPEG Audio at 128 Kbps
Infos             : 2 channels, 44.1 KHz


Pobierasz i oglądasz! Bez wypakowywania, bez błędów CRC!

RapidGator.net:
http://rapidgator.net/file/59012285/Podroz.na.Tajemnicza.Wyspe.2012.PLDUB.MD.DVDRip.XviD.avi.html

EgoFiles.com:
http://egofiles.com/Lla6Lf65aL3w87hb/Podroz.na.Tajemnicza.Wyspe.2012.PLDUB.MD.DVDRip.XviD.avi

TurboBit.net:
http://turbobit.net/wq3ye7bvxndx.html


Własny upload! NIE REMOTE! Masz pewność co pobierasz!

Informacje

Jeżeli chcesz skomentować artykuł musisz być zarejestrowany na stronie.