EXSite.pl - Portal ze wszystkim Mamy tutaj wszystko

NIE MASZ JESZCZE KONTA? ZAREJESTRUJ SIĘ ZA DARMO!   
Przypomnij hasło X

Gniew tytanów / Wrath of a Titans (2012) 3D.1080p.Blu-Ray.AVC.DTS-HD.MA.5.1-HDC

Dodał: Coder775 15 Czerwiec 2012 13:42


Gniew tytanów / Wrath of a Titans (2012) 3D.1080p.Blu-Ray.AVC.DTS-HD.MA.5.1-HDC

Gniew tytanów / Wrath of a Titans (2012) 3D.1080p.Blu-Ray.AVC.DTS-HD.MA.5.1-HDC

Gniew tytanów / Wrath of a Titans (2012) 3D.1080p.Blu-Ray.AVC.DTS-HD.MA.5.1-HDC

INFO:

gatunek: Fantasy, Przygodowy
premiera: 30 marca 2012 (Polska) 17 marca 2012 (świat)
produkcja: USA
reżyseria: Jonathan Liebesman
scenariusz: Dan Mazeau, David Johnson

OPIS:

Perseusz zostanie wciągnięty w ten konflikt, kiedy Hades (Ralph Fiennes) i boski syn Zeusa Ares (Edgar Ram?rez) zdradzą Olimp i przejdą na stronę Kronosa, co zaburzy delikatną równowagę i Zeus zostanie uwięziony. Perseusz wyruszy do świata zmarłych, by go uratować. A pomogą mu w tym Andromeda (Rosamund Pike), przyrodni brat Perseusza Argenor (Toby Kebbell) oraz Hefajstos (Bill Nighy).

General Information:


Disc Title: Wrath of the Titans 2012 1080p 3D Blu-Ray AVC DTS-HD MA 5.1-HDC
Disc Size: 33,581,286,375 bytes
Protection: AACS
BD-Java: No
Extras: Blu-ray 3D
BDInfo: 0.5.8

PLAYLIST REPORT:

Name: 00098.MPLS
Length: 1:39:32.007 (h:m:s.ms)
Size: 32,400,936,960 bytes
Total Bitrate: 43.40 Mbps

(*) Indicates included stream hidden by this playlist

VIDEO:

Codec Bitrate Description

MPEG-4 AVC Video 23864 kbps 1080p / 23.976 fps / 16:9 / High Profile 4.1
MPEG-4 MVC Video 7856 kbps

AUDIO:

Codec Language Bitrate Description

DTS-HD Master Audio English 4164 kbps 5.1 / 48 kHz / 4164 kbps / 24-bit (DTS Core: 5.1 / 48 kHz / 1509 kbps / 24-bit)
Dolby Digital Audio French 448 kbps 5.1 / 48 kHz / 448 kbps / DN -4dB
Dolby Digital Audio Spanish 448 kbps 5.1 / 48 kHz / 448 kbps / DN -4dB
Dolby Digital Audio Portuguese 448 kbps 5.1 / 48 kHz / 448 kbps / DN -4dB
Dolby Digital Audio Hungarian 448 kbps 5.1 / 48 kHz / 448 kbps / DN -4dB
Dolby Digital Audio Chinese 448 kbps 5.1 / 48 kHz / 448 kbps / DN -4dB
Dolby Digital Audio Thai 448 kbps 5.1 / 48 kHz / 448 kbps / DN -4dB
Dolby Digital Audio Turkish 448 kbps 5.1 / 48 kHz / 448 kbps / DN -4dB
* Dolby Digital Audio Japanese 448 kbps 5.1 / 48 kHz / 448 kbps

SUBTITLES:

Codec Language Bitrate Description

* Presentation Graphics Japanese 20.066 kbps
Presentation Graphics English 35.785 kbps
Presentation Graphics French 25.802 kbps
Presentation Graphics Chinese 24.406 kbps
Presentation Graphics Korean 22.836 kbps
Presentation Graphics Spanish 29.346 kbps
Presentation Graphics Portuguese 28.184 kbps
Presentation Graphics Indonesian 34.047 kbps
Presentation Graphics Bulgarian 27.615 kbps
Presentation Graphics Chinese 23.718 kbps
Presentation Graphics Chinese 25.668 kbps
Presentation Graphics Hebrew 24.146 kbps
Presentation Graphics Hungarian 27.880 kbps
Presentation Graphics Polish 25.309 kbps
Presentation Graphics Romanian 26.545 kbps
Presentation Graphics Thai 26.726 kbps
Presentation Graphics Turkish 27.633 kbps
Presentation Graphics Spanish 0.082 kbps
Presentation Graphics Portuguese 0.072 kbps
Presentation Graphics Hungarian 0.066 kbps
Presentation Graphics Turkish 0.053 kbps
* Presentation Graphics Japanese 0.113 kbps



Gniew tytanów / Wrath of a Titans (2012) 3D.1080p.Blu-Ray.AVC.DTS-HD.MA.5.1-HDC

TURBOBIT:

Uwaga! Linki nie zakodowane tylko dla zarejestrowanych użytkowników!

Nie masz konta? Zarejestruj się za darmo!
----------------
Links are not encoded only for registered users only! Plese login or register!


RAPIDGATOR:

Uwaga! Linki nie zakodowane tylko dla zarejestrowanych użytkowników!

Nie masz konta? Zarejestruj się za darmo!
----------------
Links are not encoded only for registered users only! Plese login or register!


HELLSHARE:

Uwaga! Linki nie zakodowane tylko dla zarejestrowanych użytkowników!

Nie masz konta? Zarejestruj się za darmo!
----------------
Links are not encoded only for registered users only! Plese login or register!



Użytkownik VIP

B89VIP Uploader

#1 | Dodany: 15 Czerwiec 2012 13:42

thx

Dubbing nie lektor....

Oj dobra dobra, tak naprawdę to nie ma lektora ani dubbingu ;D
Użytkownik VIP

Coder775VIP

#2 | Dodany: 15 Czerwiec 2012 13:49

Nie ma audio PL, wydali z błędnym NFO na trackerze i dlatego problem powstał.

Zgłoszone do poprawienia.
Są same Napisy PL.
Użytkownik VIP

cacumenUżytkownik

#3 | Dodany: 15 Czerwiec 2012 13:51

ok brawo thx
Użytkownik VIP

konsole3Użytkownik

#4 | Dodany: 15 Czerwiec 2012 13:51

super wzuta
Użytkownik VIP

ShaQ72Trial Uploader

#5 | Dodany: 15 Czerwiec 2012 14:05

ok
Użytkownik VIP

alldaroUżytkownik

#6 | Dodany: 15 Czerwiec 2012 14:54

Czyli to nie jest z lektorem ?
Użytkownik VIP

kamil_ka85Użytkownik

#7 | Dodany: 15 Czerwiec 2012 14:55

To zanim się wrzuci, wypadałoby sprawdzić.
Użytkownik VIP

grad3dUżytkownik

#8 | Dodany: 15 Czerwiec 2012 15:13

Gniew tytanów / Wrath of a Titans (2012) ** [NAPISY PL] **

3D.1080p.Blu-Ray.AVC.DTS-HD.MA.5.1-HDC


.::DANE TECHNICZNE || RELEASE iNFO::.

DANE TECHNiCZNE FiLMU:
Disc Title: Wrath of the Titans 2012 1080p 3D Blu-Ray AVC DTS-HD MA 5.1-HDC
Disc Size: 33,581,286,375 bytes
Protection: AACS
BD-Java: No
Extras: Blu-ray 3D
BDInfo: 0.5.8

PLAYLIST REPORT:

Name: 00098.MPLS
Length: 1:39:32.007 (h:m:s.ms)
Size: 32,400,936,960 bytes
Total Bitrate: 43.40 Mbps

(*) Indicates included stream hidden by this playlist

VIDEO:

Codec Bitrate Description

MPEG-4 AVC Video 23864 kbps 1080p / 23.976 fps / 16:9 / High Profile 4.1
MPEG-4 MVC Video 7856 kbps

DANE UPLOADU:

Kompresja: RAR
Dane Naprawcze: 5%
Hasło: Brak Hasła


..::DOWNLOAD || 500 MB PARTS!::..


FROGUP
Uwaga! Linki nie zakodowane tylko dla zarejestrowanych użytkowników!

Nie masz konta? Zarejestruj się za darmo!
----------------
Links are not encoded only for registered users only! Plese login or register!
Użytkownik VIP

Novo11Użytkownik

#9 | Dodany: 15 Czerwiec 2012 15:20

Zal... nie ma lektora.. pozdrawiam uploadera za 2 gr
Użytkownik VIP

B89VIP Uploader

#10 | Dodany: 15 Czerwiec 2012 15:36

Novo11,
Naucz się czytać, napisał niżej że się pomylił...
Użytkownik VIP

nomad1000Użytkownik

#11 | Dodany: 15 Czerwiec 2012 16:13

straszliwie duzo to zajmuje :( oby jakiś ripek 3d wyszedł
SUPER WSTAWKI!!! ZOBACZ http://wklej.org/id/431539/
linki pad?y? tu są świe?e --> http://pokazywarka.pl/j5u2za/
Użytkownik VIP

Cwaniak89Użytkownik

#12 | Dodany: 15 Czerwiec 2012 18:51

Już zasysam... zapowiada się miły wieczór :)
Dzięki za wstawkę brawo
Użytkownik VIP

kazimsUżytkownik

#13 | Dodany: 15 Czerwiec 2012 21:02

[Wrath Of The Titans 3D | 2012 | 1080p | English Spanish | Half_SBS | Mkv


Format : Matroska
Format version : Version 2
File size : 11.5 GiB
Duration : 1h 39mn
Overall bit rate : 16.5 Mbps
Encoded date : UTC 2012-06-14 17:26:51


Video

ID : 1
Format : AVC
Format/Info : Advanced Video Codec
Format profile : High@L4.1
MultiView_Count : 2
MultiView_Layout : Right Eye
Format settings, CABAC : Yes
Format settings, ReFrames : 4 frames
Codec ID : V_MPEG4/ISO/AVC
Duration : 1h 39mn
Bit rate : 14.3 Mbps
Width : 1 920 pixels
Height : 1 080 pixels
Display aspect ratio : 16:9
Frame rate : 23.976 fps
Color space : YUV
Chroma subsampling : 4:2:0
Bit depth : 8 bits
Scan type : Progressive
Bits/(Pixel*Frame) : 0.287
Stream size : 9.91 GiB (87%)

Audio #1

ID : 2
Format : AC-3
Format/Info : Audio Coding 3
Mode extension : CM (complete main)
Format settings, Endianness : Big
Codec ID : A_AC3
Duration : 1h 39mn
Bit rate mode : Constant
Bit rate : 384 Kbps
Channel(s) : 6 channels
Channel positions : Front: L C R, Side: L R, LFE
Sampling rate : 48.0 KHz
Bit depth : 16 bits
Compression mode : Lossy
Stream size : 273 MiB (2%)
Title : AC3 5.1 Espaol Latino

Audio #2

ID : 3
Format : DTS
Format/Info : Digital Theater Systems
Codec ID : A_DTS
Duration : 1h 39mn
Bit rate mode : Constant
Bit rate : 1 510 Kbps
Channel(s) : 6 channels
Channel positions : Front: L C R, Side: L R, LFE
Sampling rate : 48.0 KHz
Bit depth : 24 bits
Compression mode : Lossy
Delay relative to video : 11ms
Stream size : 1.05 GiB (9%)
Language : English

PASSWORD= halfsbs

Not: Please DO NOT UPLOAD to other sites


TURBOBIT.NET

http://www.relink.us/f/2d23dd93970bb78304aa784cb6ff59


Other 3D Films Extra Folder Link

Netload.in

http://www.relink.us/f/7c43fc1493b1102079640432d18e51


Rapidgator

http://www.relink.us/f/9daed00401f42c7bf6de9be59dec2b


http://q.gs/1JVzO
Użytkownik VIP

haszczak89Użytkownik

#14 | Dodany: 16 Czerwiec 2012 11:32

Panowie w jakim programie zamontować ten iso i jakiego odtwarzacza najlepiej uzyć?
Użytkownik VIP

sajmerUżytkownik

#15 | Dodany: 16 Czerwiec 2012 12:36

BluRay3D Half SBS 1080p AC3 x264 INFERNO.mkv
Format : Matroska
Format version : Version 2
File size : 9.81 GiB
Duration : 1h 39mn
Overall bit rate mode : Variable
Overall bit rate : 14.1 Mbps
Movie name : WRATH_OF_THE_TITANS_BD25_3D.Title3.Bluray3DRip
Encoded date : UTC 2012-06-15 15:56:22
Writing application : mkvmerge v5.6.0 ('Kenya Kane') built on May 27 2012 16:44:04
Writing library : libebml v1.2.3 + libmatroska v1.3.0

Video
ID : 1
Format : AVC
Format/Info : Advanced Video Codec
Format profile : High@L5.1
Format settings, CABAC : Yes
Format settings, ReFrames : 2 frames
Muxing mode : Header stripping
Codec ID : V_MPEG4/ISO/AVC
Duration : 1h 39mn
Bit rate mode : Variable
Bit rate : 13.2 Mbps
Maximum bit rate : 20.2 Mbps
Width : 1 920 pixels
Height : 1 080 pixels
Display aspect ratio : 16:9
Frame rate : 23.976 fps
Color space : YUV
Chroma subsampling : 4:2:0
Bit depth : 8 bits
Scan type : Progressive
Bits/(Pixel*Frame) : 0.265
Stream size : 9.17 GiB (93%)
Default : Yes
Forced : No

Audio
ID : 2
Format : AC-3
Format/Info : Audio Coding 3
Mode extension : CM (complete main)
Format settings, Endianness : Big
Muxing mode : Header stripping
Codec ID : A_AC3
Duration : 1h 39mn
Bit rate mode : Constant
Bit rate : 640 Kbps
Channel(s) : 6 channels
Channel positions : Front: L C R, Side: L R, LFE
Sampling rate : 48.0 KHz
Bit depth : 16 bits
Compression mode : Lossy
Stream size : 456 MiB (5%)
Default : Yes
Forced : No

Text
ID : 3
Format : UTF-8
Codec ID : S_TEXT/UTF8
Codec ID/Info : UTF-8 Plain Text
Default : Yes
Forced : No

TB

http://turbobit.net/y7456v8tft8q.html
http://turbobit.net/qyargkii0p43.html
http://turbobit.net/wtfjzxfckq9s.html
http://turbobit.net/r4ntp51shew8.html
http://turbobit.net/qlch73mssa0j.html
http://turbobit.net/7hanij7j8gkw.html
http://turbobit.net/ym6q6z07szi0.html
http://turbobit.net/hei1zavay18b.html
http://turbobit.net/dfmj2g0jys92.html
http://turbobit.net/gyr6rclz035v.html
http://turbobit.net/ss8f0vminzqz.html
http://turbobit.net/cnji0rvzfb31.html

Dane naprawcze 5%
haslo - sajmer
Użytkownik VIP

luzzak24Użytkownik

#16 | Dodany: 16 Czerwiec 2012 13:14

Gniew Tytanów 3D (SBS) / Wrath of the Titans (2012)
ENG.AC3-BluRay.1080p.x264.Side-by-Side / Napisy PL

# DANE TECHNICZNE


Resolution: 1920?1080
Bitrate: 9739 Kbps
Audio #1: Deutsch DTS 5.1 1510 Kbps
Audio #2: Englisch DTS 5.1 1510 Kbps
Dauer: 83 Min | Format: mkv | Gr??e: 7570 MB


# DOWNLOADS LINK'S (można pobierać na przemian)

#Turbobit#
Uwaga! Linki nie zakodowane tylko dla zarejestrowanych użytkowników!

Nie masz konta? Zarejestruj się za darmo!
----------------
Links are not encoded only for registered users only! Plese login or register!

#Frogup#
Uwaga! Linki nie zakodowane tylko dla zarejestrowanych użytkowników!

Nie masz konta? Zarejestruj się za darmo!
----------------
Links are not encoded only for registered users only! Plese login or register!


Hasło: (dla wszystkich wstawek na Exsite.pl)

engm
Użytkownik VIP

atobosUżytkownik

#17 | Dodany: 18 Czerwiec 2012 20:03

grad3d,

przy rozpakowywaniu wywala błąd w archiwum 61
LG47LW5500
LG BD660
Pioneer DV-444
Pioneer DV-410V
H/K AVR-3500
Koda KA-310F+C+S
Użytkownik VIP

nowystylnowydillUżytkownik

#18 | Dodany: 24 Czerwiec 2012 20:33

Gniew tytanów / Wrath of a Titans (2012) BRRip.XViD-NAPISY PL

Format : AVI at 982 Kb/s
Length : 701 MB for 1h 39 min. 39s 223ms

Video #0 : MPEG-4 Visual at 843 Kb/s
Aspect : 608 x 336 (1.810) at 23.976 fps

Audio #0 : MPEG Audio at 128 Kb/s
Infos : 2 kanaly, 48,0 KHz


http://freakshare.com/files/8qoca90d/Gniew-Tytan--w---Wrath-of-The-Titans-2012--BRRip.XviD---Napisy-PL-.rar.html

Informacje

Jeżeli chcesz skomentować artykuł musisz być zarejestrowany na stronie.