EXSite.pl - Portal ze wszystkim Mamy tutaj wszystko

NIE MASZ JESZCZE KONTA? ZAREJESTRUJ SIĘ ZA DARMO!   
Przypomnij hasło X

Gniew Tytanów / Wrath of the Titans (2012) 3D.BluRay.HSBS.1080p.AC3.x264-CHD | 3D

Dodał: UruK21 16 Czerwiec 2012 13:42


Gniew Tytanów / Wrath of the Titans (2012)
3D.BluRay.HSBS.1080p.AC3.x264-CHD | 3D
*DARMOWY SERWER*

Gniew Tytanów / Wrath of the Titans (2012) 3D.BluRay.HSBS.1080p.AC3.x264-CHD | 3D

czas trwania: 1 godz. 39 min.
gatunek: Fantasy, Przygodowy
premiera: 30 marca 2012 (Polska) 28 marca 2012 (świat) (więcej...)
produkcja: USA
reżyseria: Jonathan Liebesman
scenariusz: Dan Mazeau, David Johnson

10 lat po walce z Krakenem Perseusz - syn Zeusa i półbóg - stara się żyć spokojnie na wsi jako rybak i jedyny rodzic 10-letniego syna Heliusza. Tymczasem pomiędzy bogami i tytanami toczy się szale?cza walka o władzę. Niebezpiecznie osłabieni brakiem czci ze strony ludzi, bogowie tracą kontrolę nad uwięzionymi tytanami i ich okrutnym przywódcą Kronosem.
Format            : Matroska at 14,4 Mb/s
Rozmiar           : 9,98 GB for 1h 39 min. 32s 32ms

Video #0          : AVC at 13,3 Mb/s
Dane              : 1920 x 1080 (1.778) at 23.976 fps

Audio #1          : AC-3 at 640 Kb/s
Dane              : 6 kanalów, 48,0 KHz
Jezyk             : en

Napisy            : Brak.
Dodatkowe info    : Brak.


rodzaj kompresji: .rar
zawartość uploadu: plik .mkv
wersja językowa: ENG
hasło: brak
brak danych naprawczych


Gniew Tytanów / Wrath of the Titans (2012) 3D.BluRay.HSBS.1080p.AC3.x264-CHD | 3D
Gniew Tytanów / Wrath of the Titans (2012) 3D.BluRay.HSBS.1080p.AC3.x264-CHD | 3D
Gniew Tytanów / Wrath of the Titans (2012) 3D.BluRay.HSBS.1080p.AC3.x264-CHD | 3D
Gniew Tytanów / Wrath of the Titans (2012) 3D.BluRay.HSBS.1080p.AC3.x264-CHD | 3D

Gniew Tytanów / Wrath of the Titans (2012) 3D.BluRay.HSBS.1080p.AC3.x264-CHD | 3D
Uwaga! Linki nie zakodowane tylko dla zarejestrowanych użytkowników!

Nie masz konta? Zarejestruj się za darmo!
----------------
Links are not encoded only for registered users only! Plese login or register!




Zobacz inne moje newsy na EXSite.pl


Użytkownik VIP

dragon7728Użytkownik

#1 | Dodany: 16 Czerwiec 2012 14:04

UruK21 thx za film i oczywiscie za frogup
Użytkownik VIP

spid53Użytkownik

#2 | Dodany: 16 Czerwiec 2012 15:44

Ciekawe tylko czy to nie konwersja?
PS3 slim 320GB+500GB
Samsung UE55D8000 55" 3D LED
Samsung Home Theater 5.1- 750 Watt
Użytkownik VIP

UruK21VIP

#3 | Dodany: 16 Czerwiec 2012 15:47

SOURCE..........: 3D Blu-Ray AVC DTS-HD MA 5.1
Użytkownik VIP

sajmerUżytkownik

#4 | Dodany: 16 Czerwiec 2012 16:06

BluRay3D Half SBS 1080p AC3 x264 INFERNO.mkv
Format : Matroska
Format version : Version 2
File size : 9.81 GiB
Duration : 1h 39mn
Overall bit rate mode : Variable
Overall bit rate : 14.1 Mbps
Movie name : WRATH_OF_THE_TITANS_BD25_3D.Title3.Bluray3DRip
Encoded date : UTC 2012-06-15 15:56:22
Writing application : mkvmerge v5.6.0 ('Kenya Kane') built on May 27 2012 16:44:04
Writing library : libebml v1.2.3 + libmatroska v1.3.0

Video
ID : 1
Format : AVC
Format/Info : Advanced Video Codec
Format profile : High@L5.1
Format settings, CABAC : Yes
Format settings, ReFrames : 2 frames
Muxing mode : Header stripping
Codec ID : V_MPEG4/ISO/AVC
Duration : 1h 39mn
Bit rate mode : Variable
Bit rate : 13.2 Mbps
Maximum bit rate : 20.2 Mbps
Width : 1 920 pixels
Height : 1 080 pixels
Display aspect ratio : 16:9
Frame rate : 23.976 fps
Color space : YUV
Chroma subsampling : 4:2:0
Bit depth : 8 bits
Scan type : Progressive
Bits/(Pixel*Frame) : 0.265
Stream size : 9.17 GiB (93%)
Default : Yes
Forced : No

Audio
ID : 2
Format : AC-3
Format/Info : Audio Coding 3
Mode extension : CM (complete main)
Format settings, Endianness : Big
Muxing mode : Header stripping
Codec ID : A_AC3
Duration : 1h 39mn
Bit rate mode : Constant
Bit rate : 640 Kbps
Channel(s) : 6 channels
Channel positions : Front: L C R, Side: L R, LFE
Sampling rate : 48.0 KHz
Bit depth : 16 bits
Compression mode : Lossy
Stream size : 456 MiB (5%)
Default : Yes
Forced : No

Text
ID : 3
Format : UTF-8
Codec ID : S_TEXT/UTF8
Codec ID/Info : UTF-8 Plain Text
Default : Yes
Forced : No

TB

http://turbobit.net/y7456v8tft8q.html
http://turbobit.net/qyargkii0p43.html
http://turbobit.net/wtfjzxfckq9s.html
http://turbobit.net/r4ntp51shew8.html
http://turbobit.net/qlch73mssa0j.html
http://turbobit.net/7hanij7j8gkw.html
http://turbobit.net/ym6q6z07szi0.html
http://turbobit.net/hei1zavay18b.html
http://turbobit.net/dfmj2g0jys92.html
http://turbobit.net/gyr6rclz035v.html
http://turbobit.net/ss8f0vminzqz.html
http://turbobit.net/cnji0rvzfb31.html

Dane naprawcze 5%
haslo - sajmer
Użytkownik VIP

sebeqxUżytkownik

#5 | Dodany: 16 Czerwiec 2012 16:08

Wielkie dzięki za frogup'a :D
thx thx thx
Użytkownik VIP

grad3dUżytkownik

#6 | Dodany: 16 Czerwiec 2012 17:09

Gniew tytanów / Wrath of a Titans (2012) ** [NAPISY PL] **

3D.1080p.Blu-Ray.AVC.DTS-HD.MA.5.1-HDC


.::DANE TECHNICZNE || RELEASE iNFO::.

DANE TECHNiCZNE FiLMU:
Disc Title: Wrath of the Titans 2012 1080p 3D Blu-Ray AVC DTS-HD MA 5.1-HDC
Disc Size: 33,581,286,375 bytes
Protection: AACS
BD-Java: No
Extras: Blu-ray 3D
BDInfo: 0.5.8

PLAYLIST REPORT:

Name: 00098.MPLS
Length: 1:39:32.007 (h:m:s.ms)
Size: 32,400,936,960 bytes
Total Bitrate: 43.40 Mbps

(*) Indicates included stream hidden by this playlist

VIDEO:

Codec Bitrate Description

MPEG-4 AVC Video 23864 kbps 1080p / 23.976 fps / 16:9 / High Profile 4.1
MPEG-4 MVC Video 7856 kbps

DANE UPLOADU:

Kompresja: RAR
Dane Naprawcze: 5%
Hasło: Brak Hasła


..::DOWNLOAD || 500 MB PARTS!::..


FROGUP
Uwaga! Linki nie zakodowane tylko dla zarejestrowanych użytkowników!

Nie masz konta? Zarejestruj się za darmo!
----------------
Links are not encoded only for registered users only! Plese login or register!
Użytkownik VIP

sajmerUżytkownik

#7 | Dodany: 16 Czerwiec 2012 19:40

ściągnąłem przed chwilą na swoje konto na Twojlimit bez problemu.
Użytkownik VIP

luzzak24Użytkownik

#8 | Dodany: 17 Czerwiec 2012 10:03

Gniew Tytanów 3D (SBS) / Wrath of the Titans (2012)
ENG.AC3-BluRay.1080p.x264.Side-by-Side / Napisy PL

# DANE TECHNICZNE


Resolution: 1920?1080
Bitrate: 9739 Kbps
Audio #1: Deutsch DTS 5.1 1510 Kbps
Audio #2: Englisch DTS 5.1 1510 Kbps
Dauer: 83 Min | Format: mkv | Gr??e: 7570 MB


# DOWNLOADS LINK'S (można pobierać na przemian)

#Turbobit#
Uwaga! Linki nie zakodowane tylko dla zarejestrowanych użytkowników!

Nie masz konta? Zarejestruj się za darmo!
----------------
Links are not encoded only for registered users only! Plese login or register!

#Frogup#
Uwaga! Linki nie zakodowane tylko dla zarejestrowanych użytkowników!

Nie masz konta? Zarejestruj się za darmo!
----------------
Links are not encoded only for registered users only! Plese login or register!


Hasło: (dla wszystkich wstawek na Exsite.pl)

engm
Użytkownik VIP

skyvideoUżytkownik

#9 | Dodany: 18 Czerwiec 2012 20:29

Wersja UruK21 ma zabezpieczenia Cinavia i wylacza dzwiek po kilkunastu minutach.

Informacje

Jeżeli chcesz skomentować artykuł musisz być zarejestrowany na stronie.