EXSite.pl - Portal ze wszystkim Mamy tutaj wszystko

NIE MASZ JESZCZE KONTA? ZAREJESTRUJ SIĘ ZA DARMO!   
Przypomnij hasło X

Łowcy smoków / Dragon Crusaders (2011) PL.3D.HSBS.m1080p.BluRay.x264-J25 / Lektor PL

Dodał: joseph0025 17 Czerwiec 2012 19:32


Łowcy smoków / Dragon Crusaders (2011) PL.3D.HSBS.m1080p.BluRay.x264-J25 / Lektor PL


Łowcy smoków / Dragon Crusaders (2011) PL.3D.HSBS.m1080p.BluRay.x264-J25 / Lektor PL


iNFO / OPiS



PRODUKCJA: USA
GATUNEK: Fantasy, Akcja
CZAS TRWANIA: 91 minut
DATA PREMIERY: 27 września 2011 (świat)
REŻYSERIA: Mark Atkins
SCENARIUSZ: Mark Atkins

Grupa śmiałków atakuje piracki statek. W trakcie potyczki zostają przeklęci. Aby zrzucić z siebie klątwę i przy okazji uratować świat, muszą stoczyć walkę z potężnym czarodziejem.



DANE TECHNiCZNE:
RELEASE:  Dragon.Crusaders.2011.PL.3D.HSBS.m1080p.BluRay.x264-J25

Format            : Matroska at 5.275 Kb/s
Length            : 3,33 GB for 1h 30 min. 26s 922ms

Video #0          : AVC at 4.900 Kb/s
Aspect            : 1920 x 1080 (1.778) at 23.976 fps

Audio #0          : AC-3 at 448 Kb/s
Infos             : 2 kanały, 48,0 KHz
Language          : pl

SOURCE V / A:
1080p.BluRay.x264-LeetHD / MORS (TV) [THX]

UWAGA!
Film jest w technologii 3D SiDE-BY-SiDE. Do odtworzenia filmu jest
WYMAGANY odpowiedni sprzęt (TV 3D) oraz okulary 3D.



OPiS UPLOADU:
Wielkość Uploadu: 3,33 GB
Rodzaj Kompresji: RAR
Zawartość Uploadu: Plik .MKV
Wersja Językowa: Lektor PL
Dane Naprawcze: BRAK
Hasło: BRAK


SCREENY

(KLiKNiJ ABY POWI?KSZYĆ)


Łowcy smoków / Dragon Crusaders (2011) PL.3D.HSBS.m1080p.BluRay.x264-J25 / Lektor PL Łowcy smoków / Dragon Crusaders (2011) PL.3D.HSBS.m1080p.BluRay.x264-J25 / Lektor PL Łowcy smoków / Dragon Crusaders (2011) PL.3D.HSBS.m1080p.BluRay.x264-J25 / Lektor PL



POBiERZ / DOWNLOAD

W KiLKU PARTACH | MOŻNA POBiERAĆ NA PRZEMiAN | BEZ HASŁA


Uwaga! Linki nie zakodowane tylko dla zarejestrowanych użytkowników!

Nie masz konta? Zarejestruj się za darmo!
----------------
Links are not encoded only for registered users only! Plese login or register!


Użytkownik VIP

joseph0025VIP Uploader

#1 | Dodany: 17 Czerwiec 2012 19:33

laughing
:)
Użytkownik VIP

cacumenUżytkownik

#2 | Dodany: 17 Czerwiec 2012 20:30

Oby dalej w takim tempie i tak urozmaicenie ok brawo thx thx thx
Użytkownik VIP

IreniaUżytkownik

#3 | Dodany: 17 Czerwiec 2012 20:45

ok thx
Użytkownik VIP

jezy_bmw325Użytkownik

#4 | Dodany: 17 Czerwiec 2012 21:56

poprosze na hellshall
Użytkownik VIP

kazimsUżytkownik

#5 | Dodany: 18 Czerwiec 2012 00:31

Dragon Crusaders 3D | 2011 | 1080p | Eng.Ger.Spa.Tur | Half_Over_Under | Mkv


General

Format : Matroska
File size : 7.97 GiB
Duration : 1h 30mn
Overall bit rate : 12.6 Mbps
Encoded date : UTC 2012-05-23 15:00:38
Writing application : mkvmerge v5.0.1 ('Es ist Sommer') built on Oct 23 2011 00:46:40
Writing library : libebml v1.2.2 + libmatroska v1.3.0

Video #1

ID : 1
Format : AVC
Format/Info : Advanced Video Codec
Format profile : High@L4.1
Format settings, CABAC : Yes
Format settings, ReFrames : 4 frames
Muxing mode : Header stripping
Codec ID : V_MPEG4/ISO/AVC
Duration : 1h 30mn
Bit rate : 8 974 Kbps
Width : 1 920 pixels
Height : 1 080 pixels
Display aspect ratio : 16:9
Frame rate : 23.976 fps
Color space : YUV
Chroma subsampling : 4:2:0
Bit depth : 8 bits
Scan type : Progressive
Bits/(Pixel*Frame) : 0.181
Stream size : 5.68 GiB (71%)
Writing library : x264 core 124 r2197 69a0443

Audio #2

ID : 2
Format : DTS
Format/Info : Digital Theater Systems
Muxing mode : Header stripping
Codec ID : A_DTS
Duration : 1h 30mn
Bit rate mode : Constant
Bit rate : 1 510 Kbps
Channel(s) : 6 channels
Channel positions : Front: L C R, Side: L R, LFE
Sampling rate : 48.0 KHz
Bit depth : 24 bits
Compression mode : Lossy
Stream size : 978 MiB (12%)
Language : German

Audio #3

ID : 3
Format : DTS
Format/Info : Digital Theater Systems
Muxing mode : Header stripping
Codec ID : A_DTS
Duration : 1h 30mn
Bit rate mode : Constant
Bit rate : 1 510 Kbps
Channel(s) : 6 channels
Channel positions : Front: L C R, Side: L R, LFE
Sampling rate : 48.0 KHz
Bit depth : 24 bits
Compression mode : Lossy
Stream size : 978 MiB (12%)
Language : English

Audio #4

ID : 4
Format : AC-3
Format/Info : Audio Coding 3
Mode extension : CM (complete main)
Muxing mode : Header stripping
Codec ID : A_AC3
Duration : 1h 30mn
Bit rate mode : Constant
Bit rate : 128 Kbps
Channel(s) : 2 channels
Channel positions : Front: L R
Sampling rate : 48.0 KHz
Bit depth : 16 bits
Compression mode : Lossy
Stream size : 82.9 MiB (1%)
Title : HDM TV AUDIO
Language : Turkish

Audio #6

ID : 6
Format : AC-3
Format/Info : Audio Coding 3
Mode extension : CM (complete main)
Muxing mode : Header stripping
Codec ID : A_AC3
Duration : 1h 30mn
Bit rate mode : Constant
Bit rate : 224 Kbps
Channel(s) : 6 channels
Channel positions : Front: L C R, Side: L R, LFE
Sampling rate : 44.1 KHz
Bit depth : 16 bits
Compression mode : Lossy
Stream size : 145 MiB (2%)
Language : Spanish

Text #5
ID : 5
Format : UTF-8
Codec ID : S_TEXT/UTF8
Codec ID/Info : UTF-8 Plain Text
Title : HDM
Language : Turkish


PASSWORD= halfsbs

Not: Please DO NOT UPLOAD to other sites


INTERCHANGEABLE LINKS

Turbobit.Net

http://adf.ly/8sVF8
http://adf.ly/8sVF9
http://adf.ly/8sVFA
http://adf.ly/8sVFB
http://adf.ly/8sVFC
http://adf.ly/8sVFD
http://adf.ly/8sVFE
http://adf.ly/8sVFF


Other 3D Films Extra Folder Link

http://adf.ly/7Tqxq
Użytkownik VIP

luzzak24Użytkownik

#6 | Dodany: 18 Czerwiec 2012 12:35

Łowcy smoków / Dragon Crusaders (2011)
PL.3D.HSBS.1080p.BluRay.x264 / Lektor PL

# DANE TECHNICZNE


Format            : Matroska at 12,7 Mb/s
Length            : 8,07 GB for 1h 30 min. 38s 304ms

Video #0          : AVC at 12,0 Mb/s
Aspect            : 1920 x 1080 (1.778) at 23.976 fps

Audio #0          : AC-3 at 448 Kb/s
Infos             : 2 kanały, 48,0 KHz
Language          : pl


# DOWNLOADS LINK'S (można pobierać na przemian)

#Hellshare#
Uwaga! Linki nie zakodowane tylko dla zarejestrowanych użytkowników!

Nie masz konta? Zarejestruj się za darmo!
----------------
Links are not encoded only for registered users only! Plese login or register!

#Turbobit#
Uwaga! Linki nie zakodowane tylko dla zarejestrowanych użytkowników!

Nie masz konta? Zarejestruj się za darmo!
----------------
Links are not encoded only for registered users only! Plese login or register!

#Frogup#
Uwaga! Linki nie zakodowane tylko dla zarejestrowanych użytkowników!

Nie masz konta? Zarejestruj się za darmo!
----------------
Links are not encoded only for registered users only! Plese login or register!


Hasło: (dla wszystkich wstawek na Exsite.pl)

engm
Użytkownik VIP

marimba22Użytkownik

#7 | Dodany: 18 Czerwiec 2012 12:55

wstawka super, film z piątej ligi... tragedia.
Użytkownik VIP

adawol21Użytkownik

#8 | Dodany: 19 Czerwiec 2012 10:53

popieram-tragedia
Użytkownik VIP

julcia2003Użytkownik

#9 | Dodany: 20 Czerwiec 2012 15:56

Film straszny! Fabula jak i 3D tragedia!
Uwaga! Linki nie zakodowane tylko dla zarejestrowanych użytkowników!

Nie masz konta? Zarejestruj się za darmo!
----------------
Links are not encoded only for registered users only! Plese login or register!

Informacje

Jeżeli chcesz skomentować artykuł musisz być zarejestrowany na stronie.