EXSite.pl - Portal ze wszystkim Mamy tutaj wszystko

NIE MASZ JESZCZE KONTA? ZAREJESTRUJ SIĘ ZA DARMO!   
Przypomnij hasło X

Oszukać Przeznaczenie 5 (3D OU) / Final Destination 5 (2011) mini-HD.1080p.Over-Under.AC3.x264-LEON 345 / Lektor PL

Dodał: first_person 5 Lipiec 2012 03:17


Oszukać Przeznaczenie 5 (3D OU) - Final Destination 5 *2011* mini-HD.1080p.Over-Under.AC3.x264-LEON 345 / Lektor PL

Oszukać Przeznaczenie 5 (3D OU) / Final Destination 5 (2011) mini-HD.1080p.Over-Under.AC3.x264-LEON 345 / Lektor PL

Film w wersji 3D Over-Under.
Do odtworzenia filmu WYMAGANY odpowiedni sprzęt (TV 3D).

vgatunek: Horror
premiera: 12 sierpnia 2011 (Polska), 4 sierpnia 2011 (świat)
produkcja: USA

Nieważne dokąd uciekniesz, nieważnie gdzie się schowasz... nie oszukasz śmierci. W Oszukać przeznaczenie 5 śmierć jest jak zawsze wszechobecna. Jej moce zostają wyzwolone, gdy przeczucie jednego człowieka ratuje grupę robotników od śmierci pod gruzami mostu wiszącego. Przeznaczeniem tych ludzi było nie przetrwać. Teraz w przerażającym wyścigu z czasem, przeklęta grupa gorączkowo próbuje odkryć sposób ucieczki przed złowrogim planem śmierci.

General

Format : Matroska
File size : 3.87 GiB
Duration : 1h 31mn
Overall bit rate : 6 033 Kbps
Encoded date : UTC 2012-06-29 21:39:52
Writing application : mkvmerge v5.2.1 ('A Far Off Place') built on Jan 2 2012 23:21:10
Writing library : libebml v1.2.3 + libmatroska v1.3.0

Video
ID : 1
Format : AVC
Format/Info : Advanced Video Codec
Format profile : Baseline@L4.0
Format settings, CABAC : No
Format settings, ReFrames : 1 frame
Muxing mode : Container profile=Unknown@4.0
Codec ID : V_MPEG4/ISO/AVC
Duration : 1h 31mn
Bit rate : 5 465 Kbps
Width : 1 920 pixels
Height : 1 080 pixels
Display aspect ratio : 16:9
Frame rate mode : Variable
Frame rate : 23.976 fps
Resolution : 8 bits
Colorimetry : 4:2:0
Scan type : Progressive
Bits/(Pixel*Frame) : 0.110
Stream size : 3.50 GiB (90%)

Audio
ID : 2
Format : AC-3
Format/Info : Audio Coding 3
Codec ID : A_AC3
Duration : 1h 31mn
Bit rate mode : Constant
Bit rate : 448 Kbps
Channel(s) : 6 channels
Channel positions : Front: L C R, Side: L R, LFE
Sampling rate : 48.0 KHz
Stream size : 294 MiB (7%)
Language : Polish


Info uploadu:

Rozmiar: 3.87 GB
Kompresja: Rar
Dane naprawcze: 3 %
Rozmiar parta: 950 MB
Ilość partów: 5



DOWNLOAD | MOŻNA POBIERAĆ NA PRZEMIAN
Uwaga! Linki nie zakodowane tylko dla zarejestrowanych użytkowników!

Nie masz konta? Zarejestruj się za darmo!
----------------
Links are not encoded only for registered users only! Plese login or register!

DOWNLOAD | W JEDNYM PLIKU
Uwaga! Linki nie zakodowane tylko dla zarejestrowanych użytkowników!

Nie masz konta? Zarejestruj się za darmo!
----------------
Links are not encoded only for registered users only! Plese login or register!


Zobacz moje inne newsy na Exsite.pl

Użytkownik VIP

KontropUżytkownik

#2 | Dodany: 5 Lipiec 2012 08:39

Oszukać Przeznaczenie 5 (3D SBS) / Final Destination 5 (2011) [Lektor PL]


Format : Matroska (MKV)
Rozmiar pliku : 10,09 GB
Czas trwania : 1h 31 min.
Całkowita przepływność bitów : 15,7 Mb/s

Wideo:

Format : AVC
Profil formatu : High@L5.1
Czas trwania : 1h 31 min.
Przepływność bitów : 14,8 Mb/s
Szerokość : 1.920 pikseli
Wysokość : 1.080 pikseli
Proporcje obrazu : 16:9
Szybkość wyświetlania klatek : 23,976 kl/s
Rozmiar strumienia : 9,48 GB (94%)

Audio:

Format : AC-3
Czas trwania : 1h 31 min.
Rodzaj przepływności : Stała
Przepływność bitów : 640 Kb/s
Kanały : 6 kanałów
Rozmieszczenie kanałów : Front: L C R, Side: L R, LFE
Częstotliwość próbkowania : 48,0 KHz
Rozmiar strumienia : 420 MB (4%)
Język : Polski




http://ul.to/folder/s9b8ne
LG47LW5500
LG BD660
Dreambox 8000 HD
Dreambox 800 HD
Użytkownik VIP

nakacu22VIP

#3 | Dodany: 5 Lipiec 2012 10:52

thx
Powracam ;)
Użytkownik VIP

asiulka2415Użytkownik

#4 | Dodany: 9 Lipiec 2012 14:00

mam problem z 4 wstawka, moge prosic o nowy upload? najlepiej na azushare, ewentualnie na rapidgator

Wycofuje! :) z rapidgatora udało mi się całość ściągnąć :) Dzięki wielkie za film! thx

Po seansie brawo mega! Polecam!
Użytkownik VIP

nienazUżytkownik

#5 | Dodany: 7 Sierpień 2012 12:51

Najpierw był problem z rozpakowaniem komputer się zawieszał przy 55procentach,pobrałem z innego źródła i podczas kopiowania na pendrive zawiesza się pod koniec kopiowania.??
Użytkownik VIP

XioUżytkownik

#6 | Dodany: 6 Sierpień 2013 19:48

Oszukać przeznaczenie 2000.PL.720p.BDRip.XviD.AC3-ELiTE


gatunek: Horror
produkcja: Kanada, USA
premiera: 20 października 2000 (Polska) 16 marca 2000 (świat)
reżyseria: James Wong
scenariusz: Glen Morgan, Jeffrey Reddick, James Wong

Przed startem samolotu młody mężczyzna doświadcza wizji, w której giną wszyscy pasażerowie. Przeczucie powoduje, że chce ich ostrzec, lecz zostaje usunięty z pokładu.


Download

Uwaga! Linki nie zakodowane tylko dla zarejestrowanych użytkowników!

Nie masz konta? Zarejestruj się za darmo!
----------------
Links are not encoded only for registered users only! Plese login or register!





gatunek: Horror
produkcja: Kanada, USA
premiera: 9 maja 2003 (Polska) 30 stycznia 2003 (świat)
reżyseria: David R. Ellis
scenariusz: J. Mackye Gruber, Eric Bress

Podczas jazdy samochodem Kimberly doświadcza wizji, w której widzi straszny karambol. Przeczucie powoduje, że dziewczyna blokuje wjazd na autostradę.


Download

Uwaga! Linki nie zakodowane tylko dla zarejestrowanych użytkowników!

Nie masz konta? Zarejestruj się za darmo!
----------------
Links are not encoded only for registered users only! Plese login or register!





gatunek: Horror
produkcja: Kanada, USA, Niemcy
premiera: 24 marca 2006 (Polska) 9 lutego 2006 (świat)
reżyseria: James Wong
scenariusz: Glen Morgan, James Wong

Przeczucie śmiertelnego wypadku na rollercoasterze ratuje licealistkę i jej grupę znajomych. Śmierć chce wyrównać rachunki na tych, którzy uciekli przed swoim przeznaczeniem.


Download

Uwaga! Linki nie zakodowane tylko dla zarejestrowanych użytkowników!

Nie masz konta? Zarejestruj się za darmo!
----------------
Links are not encoded only for registered users only! Plese login or register!
Kocham kobiety!

Informacje

Jeżeli chcesz skomentować artykuł musisz być zarejestrowany na stronie.