EXSite.pl - Portal ze wszystkim Mamy tutaj wszystko

NIE MASZ JESZCZE KONTA? ZAREJESTRUJ SIĘ ZA DARMO!   
Przypomnij hasło X

Rodzinka Robinsonów 3D (OU) / Meet the Robinsons (2007) mini-HD.1080p.Over-Under.AC3.x264-LEON 345 / Dubbing PL

Dodał: first_person 5 Lipiec 2012 05:11


Rodzinka Robinsonów 3D (OU) / Meet the Robinsons (2007) mini-HD.1080p.Over-Under.AC3.x264-LEON 345 / Dubbing PL

Rodzinka Robinsonów 3D (OU) / Meet the Robinsons (2007) mini-HD.1080p.Over-Under.AC3.x264-LEON 345 /  Dubbing PL

Film w wersji 3D Over-Under.
Do odtworzenia filmu WYMAGANY odpowiedni sprzęt (TV 3D).

gatunek: Animacja, Familijny, Komedia, Sci-Fi
premiera: 1 czerwca 2007 (Polska), 23 marca 2007 (świat)
produkcja: USA

Historia chłopca - geniusza, który pewnego dnia konstruuje maszynę pozwalającą odzyskać utracone wspomnienia. Okazuje się, że maszyna uruchamia przejście w czasie. Wilbur przenosi się do swojej przyszłości – do świata, którego istnienie zależy tylko od niego..

General

Format : Matroska
File size : 3.76 GiB
Duration : 1h 31mn
Overall bit rate : 5 901 Kbps
Encoded date : UTC 2012-06-30 21:23:55
Writing application : mkvmerge v5.2.1 ('A Far Off Place') built on Jan 2 2012 23:21:10
Writing library : libebml v1.2.3 + libmatroska v1.3.0

Video
ID : 1
Format : AVC
Format/Info : Advanced Video Codec
Format profile : Baseline@L4.0
Format settings, CABAC : No
Format settings, ReFrames : 1 frame
Muxing mode : Container profile=Unknown@4.0
Codec ID : V_MPEG4/ISO/AVC
Duration : 1h 31mn
Bit rate : 5 336 Kbps
Width : 1 920 pixels
Height : 1 080 pixels
Display aspect ratio : 16:9
Frame rate mode : Variable
Frame rate : 25.000 fps
Resolution : 8 bits
Colorimetry : 4:2:0
Scan type : Progressive
Bits/(Pixel*Frame) : 0.103
Stream size : 3.40 GiB (90%)

Audio
ID : 2
Format : AC-3
Format/Info : Audio Coding 3
Codec ID : A_AC3
Duration : 1h 31mn
Bit rate mode : Constant
Bit rate : 448 Kbps
Channel(s) : 6 channels
Channel positions : Front: L C R, Side: L R, LFE
Sampling rate : 48.0 KHz
Video delay : 20ms
Stream size : 292 MiB (8%)
Title : Synchro by Leon 345
Language : Polish dubbing


Info uploadu:
Rozmiar: 3.76 GB
Kompresja: Rar
Dane naprawcze: 3 %
Rozmiar parta: 950 MB
Ilość partów: 5



DOWNLOAD | MOŻNA POBIERAĆ NA PRZEMIAN
Uwaga! Linki nie zakodowane tylko dla zarejestrowanych użytkowników!

Nie masz konta? Zarejestruj się za darmo!
----------------
Links are not encoded only for registered users only! Plese login or register!


DOWNLOAD | W JEDNYM PLIKU
Uwaga! Linki nie zakodowane tylko dla zarejestrowanych użytkowników!

Nie masz konta? Zarejestruj się za darmo!
----------------
Links are not encoded only for registered users only! Plese login or register!


Zobacz moje inne newsy na Exsite.pl

Użytkownik VIP

leon345Użytkownik

#2 | Dodany: 5 Lipiec 2012 10:17

zaciagać śmiało ok
Użytkownik VIP

nakacu22VIP

#3 | Dodany: 5 Lipiec 2012 10:52

thx
Powracam ;)
Użytkownik VIP

tejzikUżytkownik

#4 | Dodany: 5 Lipiec 2012 11:35

masz możne pełną wersje bez przeróbki SBS?
Użytkownik VIP

gerardo2Użytkownik

#5 | Dodany: 5 Lipiec 2012 11:52

leon345 tu jesteś mile widziany
Użytkownik VIP

leon345Użytkownik

#6 | Dodany: 5 Lipiec 2012 12:19

dzięki smile pozdro
Użytkownik VIP

duhtUżytkownik

#7 | Dodany: 5 Lipiec 2012 13:04

Kurcze Leon nawet tu cie przywiało?? Na torrentach widac pijawy mocno daja sie we znaki:) Pozdro dla mistrza
Użytkownik VIP

lelo27Użytkownik

#8 | Dodany: 5 Lipiec 2012 23:16

witam mistrza leona 345
tu alvaroo85 z orga..
pozdro
to są twoje wstawki sam je dodajesz czy ktoś ?
Użytkownik VIP

sebol 102Użytkownik

#9 | Dodany: 8 Lipiec 2012 20:35

ok
Użytkownik VIP

azuliUżytkownik

#10 | Dodany: 2 Sierpień 2012 15:47

thx
Użytkownik VIP

Stan63Użytkownik

#11 | Dodany: 30 Sierpień 2012 01:04

ok 5 ok

Informacje

Jeżeli chcesz skomentować artykuł musisz być zarejestrowany na stronie.