EXSite.pl - Portal ze wszystkim Mamy tutaj wszystko

NIE MASZ JESZCZE KONTA? ZAREJESTRUJ SIĘ ZA DARMO!   
Przypomnij hasło X

Miś Yogi 3D OU / Yogi Bear (2010) mini-HD.1080p.Over-Under.AC3.x264-LEON 345 / Dubbing PL

Dodał: first_person 6 Lipiec 2012 03:32


Miś Yogi 3D OU / Yogi Bear (2010) mini-HD.1080p.Over-Under.AC3.x264-LEON 345 / Dubbing PL

Miś Yogi 3D OU / Yogi Bear (2010) mini-HD.1080p.Over-Under.AC3.x264-LEON 345 / Dubbing PL

Film w wersji 3D Over-Under.
Do odtworzenia filmu WYMAGANY odpowiedni sprzęt (TV 3D).

gatunek: Animacja, Familijny, Komedia, Przygodowy
premiera: 18 lutego 2011 (Polska) 17 grudnia 2010 (świat)

Film opowiada o mieszkających w Parku Jellystone niedźwiedziach - Yogim (głos - Dan Aykroyd) i jego przyjacielu Boo Boo (głos - Justin Timberlake). Pewnego dnia do parku przybywa reporterka (głos - Anna Faris), która staje się obiektem zainteresowa? strażnika Smitha.

General

Format : Matroska
File size : 3.99 GiB
Duration : 1h 20mn
Encoding type : 2 Pass
Overall bit rate : 7 111 Kbps
Movie name : YOGI_BEARS_3D_BLUEBIRD.Title100.Bluray3DRip
Encoded date : UTC 2012-06-20 12:31:12
Writing application : mkvmerge v5.2.1 ('A Far Off Place') built on Jan 2 2012 23:21:10
Writing library : libebml v1.2.3 + libmatroska v1.3.0

Video
ID : 1
Format : AVC
Format/Info : Advanced Video Codec
Format profile : High@L5.1
Format settings, CABAC : Yes
Format settings, ReFrames : 2 frames
Muxing mode : Container profile=Unknown@5.1
Codec ID : V_MPEG4/ISO/AVC
Duration : 1h 20mn
Encoding type : 2 Pass
Bit rate : 6 649 Kbps
Width : 1 920 pixels
Height : 1 080 pixels
Display aspect ratio : 16:9
Frame rate : 23.976 fps
Resolution : 8 bits
Colorimetry : 4:2:0
Scan type : Progressive
Bits/(Pixel*Frame) : 0.134
Stream size : 3.73 GiB (93%)
Writing library : x264 core
Color primaries : BT.709-5, BT.1361, IEC 61966-2-4, SMPTE RP177
Transfer characteristics : BT.709-5, BT.1361
Matrix coefficients : BT.709-5, BT.1361, IEC 61966-2-4 709, SMPTE RP177

Audio
ID : 2
Format : AC-3
Format/Info : Audio Coding 3
Codec ID : A_AC3
Duration : 1h 20mn
Bit rate mode : Constant
Bit rate : 320 Kbps
Channel(s) : 6 channels
Channel positions : Front: L C R, Side: L R, LFE
Sampling rate : 48.0 KHz
Stream size : 184 MiB (5%)
Language : Polish

Menu
00:00:00.000 : en:(01)00:00:00:000
00:12:01.679 : en:(02)00:12:01:679
00:20:53.126 : en:(03)00:20:53:126
00:30:57.272 : en:(04)00:30:57:272
00:41:42.833 : en:(05)00:41:42:833
00:51:03.977 : en:(06)00:51:03:977
00:59:09.170 : en:(07)00:59:09:170
01:12:53.786 : en:(08)01:12:53:786
01:20:23.151 : en:(09)01:20:23:151


Info uploadu:
Rozmiar: 3.99 GB
Kompresja: Rar
Dane naprawcze: BRAK
Rozmiar parta: 800 MB
Ilość partów: 6



DOWNLOAD | MOŻNA POBIERAĆ NA PRZEMIAN
Uwaga! Linki nie zakodowane tylko dla zarejestrowanych użytkowników!

Nie masz konta? Zarejestruj się za darmo!
----------------
Links are not encoded only for registered users only! Plese login or register!


DOWNLOAD | W JEDNYM PLIKU
Uwaga! Linki nie zakodowane tylko dla zarejestrowanych użytkowników!

Nie masz konta? Zarejestruj się za darmo!
----------------
Links are not encoded only for registered users only! Plese login or register!


Zobacz moje inne newsy na Exsite.pl

Użytkownik VIP

bodzio9Uploader

#2 | Dodany: 6 Lipiec 2012 04:08

Miś Yogi 3D SBS / Yogi Bear (2010) mini-HD by DJP & HOOLIMAN / Dubbing PL




Uwaga! Linki nie zakodowane tylko dla zarejestrowanych użytkowników!

Nie masz konta? Zarejestruj się za darmo!
----------------
Links are not encoded only for registered users only! Plese login or register!



Hasło:up4Audioksiazki!
Użytkownik VIP

KontropUżytkownik

#3 | Dodany: 6 Lipiec 2012 08:53

Miś Yogi / Yogi Bear (2010) 3D Half-SBS 1080p Dubbing PL


Format : Matroska (MKV)
Rozmiar pliku : 1,58 GB
Czas trwania : 1h 20 min.

Wideo:

Format : AVC
Profil formatu : High@L5.1
Czas trwania : 1h 20 min.
Przepływność bitów : 2.500 Kb/s
Szerokość : 1.920 pikseli
Wysokość : 1.080 pikseli
Proporcje obrazu : 16:9
Szybkość wyświetlania klatek : 23,976 kl/s
Rozmiar strumienia : 1,37 GB (87%)


Audio:

Format : AC-3
Czas trwania : 1h 20 min.
Rodzaj przepływności : Stała
Przepływność bitów : 320 Kb/s
Kanały : 6 kanałów
Rozmieszczenie kanałów : Front: L C R, Side: L R, LFE
Częstotliwość próbkowania : 48,0 KHz
Rozmiar strumienia : 184 MB (11%)
Język : Polski




http://ul.to/folder/eceddu



LG47LW5500
LG BD660
Dreambox 8000 HD
Dreambox 800 HD
Użytkownik VIP

nakacu22VIP

#4 | Dodany: 6 Lipiec 2012 10:37

wwwwww
Powracam ;)
Użytkownik VIP

leon345Użytkownik

#5 | Dodany: 6 Lipiec 2012 10:39

ok
Użytkownik VIP

KontropUżytkownik

#7 | Dodany: 6 Lipiec 2012 15:58

SUPER!
ok thx

Czy jest jakas szansa na linki do pon.Filmow?

Epoka Lodowcowa 3 (3D SBS) Era Dinozaurów / Ice Age: Dawn of the Dinosaurs (2009) Dubbing PL mini-HD

Linki Hooliego padly sad

oraz:

Shrek 4D (2003) Dubbing PL
(nie wiem nawet, czy jest jakas SBS wersja..mam wersje 3D-Anaglyph)


Lord Farquaad został zjedzony przez smoczycę, ale jego duch powrócił. Duch
jest tak samo zły i podły jak przed pożarceim. Z pomocą Theloniousa
porywa Fionę. Shrek i osioł wyruszają, aby ją ocalić. Pomaga im w tym
smoczyca. Muszą się spieszyć, zanim Fiona spadnie na tratwie z wodospadu.

LG47LW5500
LG BD660
Dreambox 8000 HD
Dreambox 800 HD
Użytkownik VIP

Stan63Użytkownik

#8 | Dodany: 20 Wrzesień 2012 14:22

ok ok

Informacje

Jeżeli chcesz skomentować artykuł musisz być zarejestrowany na stronie.