EXSite.pl - Portal ze wszystkim Mamy tutaj wszystko

NIE MASZ JESZCZE KONTA? ZAREJESTRUJ SIĘ ZA DARMO!   
Przypomnij hasło X

Oszukać Przeznaczenie 4 (3D OU) / The Final Destination 4 (2009) mini-HD.1080p.Over-Under.AC3.x264-LEON 345 / Lektor PL

Dodał: first_person 6 Lipiec 2012 09:20


Oszukać Przeznaczenie 4 (3D OU) / The Final Destination 4 (2009) mini-HD.1080p.Over-Under.AC3.x264-LEON 345 / Lektor PL

Oszukać Przeznaczenie 4 (3D OU) / The Final Destination 4 (2009) mini-HD.1080p.Over-Under.AC3.x264-LEON 345 / Lektor PL

premiera: 4 września 2009 (Polska), 26 sierpnia 2009 (świat)
produkcja: USA
gatunek: Horror

Nick wraz z grupą przyjaciół wyrusza na tor, aby śledzić weekendowe wyścigi samochodowe. Nagle dochodzi do przerażającego wypadku – samochód wyścigowy uderza w widownię z prędkością 180 km/h. Rozmiary masakry przekraczają wszelkie wyobrażenie – ludzkie ciała rozdarte na strzępy, głowy odcinane płonącymi kołami, potężne eksplozje i w ko?cu katastrofa – cały stadion wali się na głowy tych, którzy przeżyli. Główny bohater odkrywa, że była to tylko wizja czegoś, co stanie się za chwilę. W najwyższym pośpiechu ucieka ze stadionu, zabierając ze sobą 12 innych osób. Lecz śmierć powraca, by doko?czyć dzieła – ocaleni giną kolejno w najbardziej nieprawdopodobnych wypadkach.

General

Format : Matroska
File size : 3.85 GiB
Duration : 1h 21mn
Encoding type : 2 Pass
Overall bit rate : 6 747 Kbps
Movie name : FIN_DEST_3D_BLUEBIRD.Title2.Bluray3DRip
Encoded date : UTC 2012-06-26 13:55:51
Writing application : DVDFab
Writing library : libebml v0.7.8 + libmatroska v0.8.1

Video
Encoding type : 2 Pass
ID : 1
Format : AVC
Format/Info : Advanced Video Codec
Format profile : High@L5.1
Format settings, CABAC : Yes
Format settings, ReFrames : 2 frames
Muxing mode : Container profile=Unknown@5.1
Codec ID : V_MPEG4/ISO/AVC
Duration : 1h 21mn
Bit rate : 6 165 Kbps
Width : 1 920 pixels
Height : 1 080 pixels
Display aspect ratio : 16:9
Frame rate : 23.976 fps
Resolution : 8 bits
Colorimetry : 4:2:0
Scan type : Progressive
Bits/(Pixel*Frame) : 0.124
Stream size : 3.52 GiB (91%)
Writing library : x264 core
Color primaries : BT.709-5, BT.1361, IEC 61966-2-4, SMPTE RP177
Transfer characteristics : BT.709-5, BT.1361
Matrix coefficients : BT.709-5, BT.1361, IEC 61966-2-4 709, SMPTE RP177

Audio
ID : 2
Format : AC-3
Format/Info : Audio Coding 3
Codec ID : A_AC3
Duration : 1h 21mn
Bit rate mode : Constant
Bit rate : 448 Kbps
Channel(s) : 6 channels
Channel positions : Front: L C R, Side: L R, LFE
Sampling rate : 48.0 KHz
Stream size : 262 MiB (7%)
Language : Polish

Menu
00:00:00.000 : en:(01)00:00:00:000
00:04:00.323 : en:(02)00:04:00:323
00:06:42.193 : en:(03)00:06:42:193
00:11:29.230 : en:(04)00:11:29:230
00:12:57.651 : en:(05)00:12:57:651
00:17:40.350 : en:(06)00:17:40:350
00:21:32.833 : en:(07)00:21:32:833
00:23:36.123 : en:(08)00:23:36:123
00:27:00.493 : en:(09)00:27:00:493
00:29:12.417 : en:(10)00:29:12:417
00:32:49.175 : en:(11)00:32:49:175
00:35:44.684 : en:(12)00:35:44:684
00:39:15.019 : en:(13)00:39:15:019
00:43:37.239 : en:(14)00:43:37:239
00:47:01.068 : en:(15)00:47:01:068
00:50:05.085 : en:(16)00:50:05:085
00:55:22.485 : en:(17)00:55:22:485
00:59:46.291 : en:(18)00:59:46:291
01:01:22.887 : en:(19)01:01:22:887
01:05:41.687 : en:(20)01:05:41:687
01:08:18.135 : en:(21)01:08:18:135
01:09:55.983 : en:(22)01:09:55:983
01:13:34.118 : en:(23)01:13:34:118
01:16:35.048 : en:(24)01:16:35:048
01:21:46.651 : en:(25)01:21:46:651


Info uploadu:
Rozmiar: 3.85 GB
Kompresja: Rar
Dane naprawcze: BRAK
Rozmiar parta: 800 MB
Ilość partów: 6



DOWNLOAD | MOŻNA POBIERAĆ NA PRZEMIAN
Uwaga! Linki nie zakodowane tylko dla zarejestrowanych użytkowników!

Nie masz konta? Zarejestruj się za darmo!
----------------
Links are not encoded only for registered users only! Plese login or register!


DOWNLOAD | W JEDNYM PLIKU
Uwaga! Linki nie zakodowane tylko dla zarejestrowanych użytkowników!

Nie masz konta? Zarejestruj się za darmo!
----------------
Links are not encoded only for registered users only! Plese login or register!


Zobacz moje inne newsy na Exsite.pl

Użytkownik VIP

nakacu22VIP

#2 | Dodany: 6 Lipiec 2012 10:46

thx
Powracam ;)
Użytkownik VIP

KontropUżytkownik

#3 | Dodany: 6 Lipiec 2012 16:02

Oszukać Przeznaczenie 4 3D (2009) [Full-HD] (SBS)



Format: Matroska
Rozmiar pliku: 2,19 GB
Czas trwania: 1h 21 min.
Całkowita przepływność bitów: 3.840 Kb/s

Wideo

Format: AVC
Czas trwania: 1h 21 min.
Przepływność bitów: 3.316 Kb/s
Szerokość: 1.280 pikseli
Wysokość: 720 pikseli
Proporcje obrazu: 16:9
Szybkość wyświetlania klatek: 23,976 kl/s
Rozmiar strumienia: 1,89 GB (86%)
Język: Polski

Audio:

Format: AC-3
Czas trwania: 1h 21 min.
Rodzaj przepływności: Stała
Przepływność bitów: 448 Kb/s
Kanały: 6 kanałów
Częstotliwość próbkowania: 48,0 KHz
Rozmiar strumienia: 262 MB (12%)
Język: Polski




http://ul.to/folder/vtndwd
LG47LW5500
LG BD660
Dreambox 8000 HD
Dreambox 800 HD
Użytkownik VIP

daro408Użytkownik

#4 | Dodany: 8 Lipiec 2012 09:36

7 Cudów Wszechświata
Użytkownik VIP

gerardo2Użytkownik

#5 | Dodany: 23 Lipiec 2012 15:05

Super dzięki na turbo smiga ostro
Użytkownik VIP

kizia88Użytkownik

#6 | Dodany: 16 Luty 2013 17:28

Oszukać Przeznaczenie 4 3D (2009) [Lektor PL]

Dane Techniczne

Ogólny

Format: Matroska
Rozmiar pliku: 3,85 GiB
Czas trwania: 1h 21mn

Video

Format: AVC
Format / Informacja: Advanced Video Codec
Czas trwania: 1h 21mn
Bit rate: 6 165 Kbps
Szerokość: 1 920 pikseli
Wysokość: 1 080 pikseli
Proporcje obrazu: 16:9
Frame rate: 23.976 fps

Audio

Format: AC-3
Czas trwania: 1h 21mn
Bit rate: 448 Kbps
Channel (s): 6 channels
Rozmieszczenie kanałów: Front: L C R, Side: L R, LFE
Częstotliwość próbkowania: 48,0 KHz
Rozmiar strumienia: 262 MB (7%)
Język: Polski


Egofiles.com
Uwaga! Linki nie zakodowane tylko dla zarejestrowanych użytkowników!

Nie masz konta? Zarejestruj się za darmo!
----------------
Links are not encoded only for registered users only! Plese login or register!


Turbobit.net
Uwaga! Linki nie zakodowane tylko dla zarejestrowanych użytkowników!

Nie masz konta? Zarejestruj się za darmo!
----------------
Links are not encoded only for registered users only! Plese login or register!


CatShare.net
Uwaga! Linki nie zakodowane tylko dla zarejestrowanych użytkowników!

Nie masz konta? Zarejestruj się za darmo!
----------------
Links are not encoded only for registered users only! Plese login or register!


Uploaded.net
Uwaga! Linki nie zakodowane tylko dla zarejestrowanych użytkowników!

Nie masz konta? Zarejestruj się za darmo!
----------------
Links are not encoded only for registered users only! Plese login or register!

Informacje

Jeżeli chcesz skomentować artykuł musisz być zarejestrowany na stronie.