EXSite.pl - Portal ze wszystkim Mamy tutaj wszystko

NIE MASZ JESZCZE KONTA? ZAREJESTRUJ SIĘ ZA DARMO!   
Przypomnij hasło X

Avengers 3D / The Avengers 3D (2012) PLDUB.1080p.BluRay.3D.HSBS.x264-B89 +m1080p | Dubbing PL

Dodał: B89 22 Sierpień 2012 14:55


Avengers 3D / The Avengers 3D (2012) Dubbing PL
PLDUB.1080p.BluRay.3D.HSBS.x264-B89
&
PLDUB.m1080p.BluRay.3D.HSBS.x264-B89


Avengers 3D / The Avengers 3D (2012) PLDUB.1080p.BluRay.3D.HSBS.x264-B89 +m1080p | Dubbing PL


iNFO:
czas trwania: 2 godz. 22 min.
gatunek: Akcja, Sci-Fi
premiera: 11 maja 2012 (Polska) 25 kwietnia 2012 (świat)
produkcja: USA
reżyseria: Joss Whedon
scenariusz: Joss Whedon

OPiS:
Nick Fury jest szefem międzynarodowej agencji S.H.I.E.L.D., która czuwa nad światowym bezpiecze?stwem. W obliczu globalnego zagrożenia staje przed zadaniem stworzenia drużyny, która podoła najbardziej nieprawdopodobnym wyzwaniom. Do swojego zespołu rekrutuje ludzi z niezwykłymi zdolnościami. Znajdą się w nim słynne postaci z uniwersum Marvela - Iron Man, Hulk, Thor, Kapitan Ameryka, Sokole Oko i Czarna Wdowa. Porozumienie w drużynie złożonej z takich indywidualności nie będzie łatwe do osiągnięcia. Fury wie jednak, że tylko działając wspólnie mogą ocalić świat przed zniszczeniem.

Avengers 3D / The Avengers 3D (2012) Dubbing PL
PLDUB.1080p.BluRay.3D.HSBS.x264-B89


SCREENY:
Avengers 3D / The Avengers 3D (2012) PLDUB.1080p.BluRay.3D.HSBS.x264-B89 +m1080p | Dubbing PL Avengers 3D / The Avengers 3D (2012) PLDUB.1080p.BluRay.3D.HSBS.x264-B89 +m1080p | Dubbing PL Avengers 3D / The Avengers 3D (2012) PLDUB.1080p.BluRay.3D.HSBS.x264-B89 +m1080p | Dubbing PL Avengers 3D / The Avengers 3D (2012) PLDUB.1080p.BluRay.3D.HSBS.x264-B89 +m1080p | Dubbing PL Avengers 3D / The Avengers 3D (2012) PLDUB.1080p.BluRay.3D.HSBS.x264-B89 +m1080p | Dubbing PL Avengers 3D / The Avengers 3D (2012) PLDUB.1080p.BluRay.3D.HSBS.x264-B89 +m1080p | Dubbing PL Avengers 3D / The Avengers 3D (2012) PLDUB.1080p.BluRay.3D.HSBS.x264-B89 +m1080p | Dubbing PL Avengers 3D / The Avengers 3D (2012) PLDUB.1080p.BluRay.3D.HSBS.x264-B89 +m1080p | Dubbing PL Avengers 3D / The Avengers 3D (2012) PLDUB.1080p.BluRay.3D.HSBS.x264-B89 +m1080p | Dubbing PL Avengers 3D / The Avengers 3D (2012) PLDUB.1080p.BluRay.3D.HSBS.x264-B89 +m1080p | Dubbing PL

TECH. DANE:
Release: The.Avengers.2012.PLDUB.1080p.BluRay.3D.HSBS.x264-B89

Format            : Matroska at 14,2 Mb/s
Length            : 14,2 GB for 2h 22 min. 54s 944ms

Video #0          : AVC at 13,5 Mb/s
Aspect            : 1920 x 1080 (1.778) at 23.976 fps

Audio #0          : AC-3 at 384 Kb/s
Infos             : 6 kanałów, 48,0 KHz
Language          : pl

Source:
V: PublicHD | A: BD [e94 THX!]


SAMPLE:
http://www40.zippyshare.com/v/54552865/file.html


DOWNLOAD:
Uwaga! Linki nie zakodowane tylko dla zarejestrowanych użytkowników!

Nie masz konta? Zarejestruj się za darmo!
----------------
Links are not encoded only for registered users only! Plese login or register!




Avengers 3D / The Avengers 3D (2012) Dubbing PL
PLDUB.m1080p.BluRay.3D.HSBS.x264-B89


SCREENY:
Avengers 3D / The Avengers 3D (2012) PLDUB.1080p.BluRay.3D.HSBS.x264-B89 +m1080p | Dubbing PL Avengers 3D / The Avengers 3D (2012) PLDUB.1080p.BluRay.3D.HSBS.x264-B89 +m1080p | Dubbing PL Avengers 3D / The Avengers 3D (2012) PLDUB.1080p.BluRay.3D.HSBS.x264-B89 +m1080p | Dubbing PL Avengers 3D / The Avengers 3D (2012) PLDUB.1080p.BluRay.3D.HSBS.x264-B89 +m1080p | Dubbing PL Avengers 3D / The Avengers 3D (2012) PLDUB.1080p.BluRay.3D.HSBS.x264-B89 +m1080p | Dubbing PL Avengers 3D / The Avengers 3D (2012) PLDUB.1080p.BluRay.3D.HSBS.x264-B89 +m1080p | Dubbing PL Avengers 3D / The Avengers 3D (2012) PLDUB.1080p.BluRay.3D.HSBS.x264-B89 +m1080p | Dubbing PL Avengers 3D / The Avengers 3D (2012) PLDUB.1080p.BluRay.3D.HSBS.x264-B89 +m1080p | Dubbing PL Avengers 3D / The Avengers 3D (2012) PLDUB.1080p.BluRay.3D.HSBS.x264-B89 +m1080p | Dubbing PL Avengers 3D / The Avengers 3D (2012) PLDUB.1080p.BluRay.3D.HSBS.x264-B89 +m1080p | Dubbing PL

TECH. DANE:
Release: The.Avengers.2012.PLDUB.m1080p.BluRay.3D.HSBS.x264-B89

Format            : Matroska at 5.130 Kb/s
Length            : 5,12 GB for 2h 22 min. 54s 944ms

Video #0          : AVC at 4.644 Kb/s
Aspect            : 1920 x 1080 (1.778) at 23.976 fps

Audio #0          : AC-3 at 384 Kb/s
Infos             : 6 kanałów, 48,0 KHz
Language          : pl


SAMPLE:
http://www42.zippyshare.com/v/93025202/file.html


DOWNLOAD:
Uwaga! Linki nie zakodowane tylko dla zarejestrowanych użytkowników!

Nie masz konta? Zarejestruj się za darmo!
----------------
Links are not encoded only for registered users only! Plese login or register!




Avengers 3D / The Avengers 3D (2012) PLDUB.1080p.BluRay.3D.HSBS.x264-B89 +m1080p | Dubbing PL

Użytkownik VIP

B89VIP Uploader

#1 | Dodany: 21 Sierpień 2012 22:12

brawo
Użytkownik VIP

pietia1987Użytkownik

#2 | Dodany: 21 Sierpień 2012 22:17

ok brawo
bedzie to w ogole z lektorem?
Użytkownik VIP

B89VIP Uploader

#3 | Dodany: 21 Sierpień 2012 22:19

pietia1987,
Nie będzie. Chyba, że kiedyś w TV zapodadzą.
Użytkownik VIP

Pitros 18Użytkownik

#4 | Dodany: 21 Sierpień 2012 22:21

A jak z efektami 3D ? belay
"Rising up like the flames of a phoenix
Raising my fist, and prepare for the remix"
Użytkownik VIP

avalanche720Użytkownik

#5 | Dodany: 21 Sierpień 2012 22:37

Słuchajcie znacie stronkę, gdzie kupię premium na rapidgatora np?
Użytkownik VIP

turysta16VIP

#6 | Dodany: 21 Sierpień 2012 22:39

Na ich oficjalnej stronie możesz kupić przez przelew :)
Użytkownik VIP

avalanche720Użytkownik

#7 | Dodany: 21 Sierpień 2012 22:55

PiratXXIw.,
Dzięki wielkie za ten filmik thx
Użytkownik VIP

marriooUżytkownik

#8 | Dodany: 22 Sierpień 2012 01:29

poprosze na netload
Użytkownik VIP

KontropUżytkownik

#9 | Dodany: 22 Sierpień 2012 08:35

Ten dubbing jest wzgl. dobry...ale chyba trzeba jeszcze troche poczekac.


Dla koneserow majacych odp. oprogr.LCD-LG i odp.sprzet (audio jest
zaje..iste)..zawsze mozna pozniej dolozyc dobra polska sciezke audio


The Avengers 3D (2012) Half-SBS 1080p ENG DTS 7.1 - 3DSBS Release

Dane techniczne:


Format : Matroska
Format version : Version 2
File size : 19.2 GB
Duration : 2h 22mn
Overall bit rate mode : Variable
Overall bit rate : 19.2 Mbps
Movie name : THE_AVENGERS_3D_3DSBS.COM
Encoded date : UTC 2012-08-21 05:24:30

Video
ID : 1
Format : AVC
Format/Info : Advanced Video Codec
Format profile : High@L4.1
Format settings, CABAC : Yes
Format settings, ReFrames : 2 frames
Codec ID : V_MPEG4/ISO/AVC
Duration : 2h 22mn
Bit rate : 14.9 Mbps
Width : 1 920 pixels
Height : 1 080 pixels
Display aspect ratio : 16:9
Frame rate mode : Constant
Frame rate : 23.976 fps
Color space : YUV
Chroma subsampling : 4:2:0
Bit depth : 8 bits
Scan type : Progressive
Bits/(Pixel*Frame) : 0.300
Stream size : 14.9 GiB (77%)
Writing library : x264 core
Default : Yes
Forced : No

Audio
ID : 2
Format : DTS
Format/Info : Digital Theater Systems
Format profile : MA / Core
Codec ID : A_DTS_HD MASTER
Duration : 2h 22mn
Bit rate mode : Variable
Bit rate : 3 949 Kbps / 1 510 Kbps
Channel(s) : 8 channels / 6 channels
Channel positions : Front: L C R, Side: L R, Back: L R, LFE / Front: L C R, Side: L R, LFE
Sampling rate : 48.0 KHz
Bit depth : 24 bits
Compression mode : Lossless / Lossy
Language : English
Default : Yes
Forced : No




http://www.netload.in/dateiZYcGGwf4CO/The-Avengers-3D-H-SBS-3DSBS.COM.part01.rar.htm
http://www.netload.in/dateiYGyzR0VW5i/The-Avengers-3D-H-SBS-3DSBS.COM.part02.rar.htm
http://www.netload.in/dateiv8WTqBetAF/The-Avengers-3D-H-SBS-3DSBS.COM.part03.rar.htm
http://www.netload.in/dateiVxzT9sT9x7/The-Avengers-3D-H-SBS-3DSBS.COM.part04.rar.htm
http://www.netload.in/dateiUu99g0kc0d/The-Avengers-3D-H-SBS-3DSBS.COM.part05.rar.htm
http://www.netload.in/dateiPvVmfMmW7A/The-Avengers-3D-H-SBS-3DSBS.COM.part06.rar.htm
http://www.netload.in/dateiM9sRVLgK3N/The-Avengers-3D-H-SBS-3DSBS.COM.part07.rar.htm
http://www.netload.in/dateiMRlgTt0fMA/The-Avengers-3D-H-SBS-3DSBS.COM.part08.rar.htm
http://www.netload.in/dateiCGBQOAVaCt/The-Avengers-3D-H-SBS-3DSBS.COM.part09.rar.htm
http://www.netload.in/dateiuIyRa7N6Cj/The-Avengers-3D-H-SBS-3DSBS.COM.part10.rar.htm
http://www.netload.in/dateikTiOPnzs1W/The-Avengers-3D-H-SBS-3DSBS.COM.part11.rar.htm
http://www.netload.in/dateizYPHGq0RX8/The-Avengers-3D-H-SBS-3DSBS.COM.part12.rar.htm
http://www.netload.in/dateirw6KRUDRo0/The-Avengers-3D-H-SBS-3DSBS.COM.part13.rar.htm
http://www.netload.in/dateiAq7CKwcEI0/The-Avengers-3D-H-SBS-3DSBS.COM.part14.rar.htm
http://www.netload.in/dateicLoPo54KDh/The-Avengers-3D-H-SBS-3DSBS.COM.part15.rar.htm
http://www.netload.in/dateieByNTd23RN/The-Avengers-3D-H-SBS-3DSBS.COM.part16.rar.htm
http://www.netload.in/dateiqqArXK7gZ7/The-Avengers-3D-H-SBS-3DSBS.COM.part17.rar.htm
http://www.netload.in/dateiAHZ3sIWzqQ/The-Avengers-3D-H-SBS-3DSBS.COM.part18.rar.htm
http://www.netload.in/datei6yNNcoeMWT/The-Avengers-3D-H-SBS-3DSBS.COM.part19.rar.htm
http://www.netload.in/dateiV6atiROMKM/The-Avengers-3D-H-SBS-3DSBS.COM.part20.rar.htm
http://www.netload.in/dateiGaNcWZHa0n/The-Avengers-3D-H-SBS-3DSBS.COM.part21.rar.htm
http://www.netload.in/dateiu4g900cRrK/The-Avengers-3D-H-SBS-3DSBS.COM.part22.rar.htm
http://www.netload.in/dateitgoPf04tx3/The-Avengers-3D-H-SBS-3DSBS.COM.part23.rar.htm
http://www.netload.in/dateigD1ZSMHRGs/The-Avengers-3D-H-SBS-3DSBS.COM.part24.rar.htm
http://www.netload.in/dateiNrFBkWKA0K/The-Avengers-3D-H-SBS-3DSBS.COM.part25.rar.htm
http://www.netload.in/dateieQEenX8Hya/The-Avengers-3D-H-SBS-3DSBS.COM.part26.rar.htm
http://www.netload.in/dateikDtGF2zsUi/The-Avengers-3D-H-SBS-3DSBS.COM.part27.rar.htm
http://www.netload.in/dateisV8RpFHrk6/The-Avengers-3D-H-SBS-3DSBS.COM.part28.rar.htm
http://www.netload.in/dateienzpm9OjGn/The-Avengers-3D-H-SBS-3DSBS.COM.part29.rar.htm
http://www.netload.in/dateiQu6D9Cf3vs/The-Avengers-3D-H-SBS-3DSBS.COM.part30.rar.htm
http://www.netload.in/dateiRwR4oddpTt/The-Avengers-3D-H-SBS-3DSBS.COM.part31.rar.htm
http://www.netload.in/dateigfvdYSMDt8/The-Avengers-3D-H-SBS-3DSBS.COM.part32.rar.htm
http://www.netload.in/dateia1ylPRbeuU/The-Avengers-3D-H-SBS-3DSBS.COM.part33.rar.htm
http://www.netload.in/dateidUQrygWfD5/The-Avengers-3D-H-SBS-3DSBS.COM.part34.rar.htm
http://www.netload.in/dateiPJ4qHDlVEG/The-Avengers-3D-H-SBS-3DSBS.COM.part35.rar.htm
http://www.netload.in/dateijCCMh64zmd/The-Avengers-3D-H-SBS-3DSBS.COM.part36.rar.htm
http://www.netload.in/dateicc60ukvXEA/The-Avengers-3D-H-SBS-3DSBS.COM.part37.rar.htm
http://www.netload.in/dateiznv4IWSfs0/The-Avengers-3D-H-SBS-3DSBS.COM.part38.rar.htm
http://www.netload.in/datei5bdHpkPGmQ/The-Avengers-3D-H-SBS-3DSBS.COM.part39.rar.htm
http://www.netload.in/dateiX5KOQe2cxl/The-Avengers-3D-H-SBS-3DSBS.COM.part40.rar.htm
LG47LW5500
LG BD660
Dreambox 8000 HD
Dreambox 800 HD
Użytkownik VIP

rosascUżytkownik

#10 | Dodany: 22 Sierpień 2012 10:22

Ja proszę o mini hd
Użytkownik VIP

B89VIP Uploader

#11 | Dodany: 22 Sierpień 2012 12:28

Cytat: rosasc
Ten dubbing jest wzgl. dobry...ale chyba trzeba jeszcze troche poczekac.

na co poczekać?
Użytkownik VIP

niunio-roUżytkownik

#12 | Dodany: 22 Sierpień 2012 14:00

jakiś plik koło 5 g i jakiś dobry upload brawo
Użytkownik VIP

3pysiakiUżytkownik

#13 | Dodany: 22 Sierpień 2012 15:27

Faktycznie nie ma za czym czekać. Ja tam ściągam od razu. Pirat XXIw dzięki za szybkie wstawienie wersji z dubbingiem. Coraz więcej wiary ma telewizory z 3D, a filmów w tych wersjach jest mało.
Pozdro.
Użytkownik VIP

Matix_14Użytkownik

#14 | Dodany: 22 Sierpień 2012 16:51

3pysiaki
mało filmów ? nie przesadzaj

efekty w Avengers kozackie :)
Użytkownik VIP

daro408Użytkownik

#15 | Dodany: 22 Sierpień 2012 19:32

PiratXXIw thx
Użytkownik VIP

xedo17Użytkownik

#16 | Dodany: 22 Sierpień 2012 19:56

Ja powiem tylko REAL-DEBRID. taniec
Użytkownik VIP

michal1985_2004Użytkownik

#17 | Dodany: 22 Sierpień 2012 20:22

http://ul.to/k4ymvwmh/b89-tave-bluray-m1080p-3d-pl.part2.rar
Mam problem ze ściągnięciem tego parta, ani przez Jdownloadera nie idzie, ani przez przeglądarke, można prosić o naprawienie tego?
Użytkownik VIP

poczesaniec1Użytkownik

#18 | Dodany: 22 Sierpień 2012 20:48

Może ktoś wrzuci pełny blu- ray 3d, albo chociaż w OU, bo tam lepsze efekty na lg
Użytkownik VIP

qbaso2Użytkownik

#19 | Dodany: 23 Sierpień 2012 09:26

Do kolegi który dawał ten film te napisy do wersji z napisami chyba nie są do wersji 3d SBS jesli możesz to podeślij odnośnik do napisów które beda sie wczytywać, bardzo mi zależy bo te 15 gb to było dużo jeszcze przy tych transferach, bede wdzięczny. chodzi oczywiście o wersje z polskimi napisami, bardzo proszę bo jestem w czarnej rozpaczy bo tylu godzinach ściągania. Z góry dziękujęPozdro
Użytkownik VIP

B89VIP Uploader

#20 | Dodany: 23 Sierpień 2012 10:37

qbaso2,
Nie są 3D, nie umiem takowych zrobić
Użytkownik VIP

qbaso2Użytkownik

#21 | Dodany: 23 Sierpień 2012 10:55

To może ktoś ma jakiś pomysł jak rozwiązać problem tych napispów aby chodzily w wersji z polskimi napisami. Po ściągnięciu tych 16 partów w kilka dni naprawde masakra tymbardziej że napisy mialy chodzić wg. opisu a nie chodzą. Bardzo proszę o jakąs pomoc.
Użytkownik VIP

sliwka1921Użytkownik

#22 | Dodany: 27 Sierpień 2012 16:08

http://ul.to/k4ymvwmh/b89-tave-bluray-m1080p-3d-pl.part2.rar N[e chce sie sciagnac ten part prosze o jeszcze raz wrzucenie
Użytkownik VIP

perri9Użytkownik

#23 | Dodany: 28 Sierpień 2012 02:39

sciagalem z ul'a 15 partow 3d (ok) dubbing (ok) thx
Użytkownik VIP

WidmoDjUżytkownik

#24 | Dodany: 14 Wrzesień 2012 17:05

W JEDNYM PLIKU I ZA FREE

Dubbing PL

http://download.hellshare.pl/the-avengers-2012-pldub-brrip-xvid-cambio-avi/8953543/
Użytkownik VIP

damek21Użytkownik

#25 | Dodany: 15 Wrzesień 2012 14:18

The.Avengers.2012.DUBB.PL.CUSTOM.1080p.BluRay.x264.DTS.AC3-



========================================
Release Date...: 2012-08-21
Source (V).....: 1080p.BluRay.x264-Rx
Source (A).....: HDBT
Runtime........: 02:22:54
Video Bitrate..: 2 pass, 8440 Kbps
Resolution.....: 1920x1080 (16:9)
Video Codec....: x264
Audio Bitrate..: 640 Kbps, 1510 Kbps
Audio Codec....: AC-3 5.1, DTS
Framerate......: 23.976 fps
Language.......: Polish Dubb, English
Subtitles......: Polish, English, Polish Forced do PL DUB
========================================



http://egofiles.com/9ku2cZ4F1RX6j0xL/csmods.team.ave.1080.part01.rar
http://egofiles.com/4Z2yokjcP94iJ9Db/csmods.team.ave.1080.part02.rar
http://egofiles.com/XesMlidNZnOIh5dE/csmods.team.ave.1080.part03.rar
http://egofiles.com/GMHXZS0ERTMrTfs4/csmods.team.ave.1080.part04.rar
http://egofiles.com/yNoLB27KCXaUyKJL/csmods.team.ave.1080.part05.rar
http://egofiles.com/DuJXGlL8KbWfEZJi/csmods.team.ave.1080.part06.rar
http://egofiles.com/sxkZIYYjZIoty0DL/csmods.team.ave.1080.part07.rar
http://egofiles.com/xsEk0FEKIBDSFopb/csmods.team.ave.1080.part08.rar
http://egofiles.com/46Sda6P1jcfa96Jh/csmods.team.ave.1080.part09.rar
http://egofiles.com/KSPKl4ztOzDpPJpp/csmods.team.ave.1080.part10.rar
http://egofiles.com/A7h2oP4mrsgAPDT0/csmods.team.ave.1080.part11.rar


http://download.hellshare.pl/csmods-team-ave-1080-part01-rar/8949122/
http://download.hellshare.pl/csmods-team-ave-1080-part02-rar/8949149/
http://download.hellshare.pl/csmods-team-ave-1080-part03-rar/8949167/
http://download.hellshare.pl/csmods-team-ave-1080-part04-rar/8949197/
http://download.hellshare.pl/csmods-team-ave-1080-part05-rar/8949238/
http://download.hellshare.pl/csmods-team-ave-1080-part06-rar/8949266/
http://download.hellshare.pl/csmods-team-ave-1080-part07-rar/8949290/
http://download.hellshare.pl/csmods-team-ave-1080-part08-rar/8949315/
http://download.hellshare.pl/csmods-team-ave-1080-part09-rar/8949332/
http://download.hellshare.pl/csmods-team-ave-1080-part10-rar/8949346/
http://download.hellshare.pl/csmods-team-ave-1080-part11-rar/8949354/

http://extabit.com/file/2du0i9fv62mw7/csmods.team.ave.1080.part11.rar
http://extabit.com/file/2du0i9fv62zif/csmods.team.ave.1080.part10.rar
http://extabit.com/file/2du0i9fv61ug7/csmods.team.ave.1080.part09.rar
http://extabit.com/file/2du0i9fv6pa9j/csmods.team.ave.1080.part08.rar
http://extabit.com/file/2du0i9fv6ol2f/csmods.team.ave.1080.part07.rar
http://extabit.com/file/2du0i9fv7bbif/csmods.team.ave.1080.part06.rar
http://extabit.com/file/2du0i9fv7brhj/csmods.team.ave.1080.part05.rar
http://extabit.com/file/2du0i9fv7yevr/csmods.team.ave.1080.part04.rar
http://extabit.com/file/2du0iad1fee8n/csmods.team.ave.1080.part03.rar
http://extabit.com/file/2du0iad1fdvc7/csmods.team.ave.1080.part02.rar
http://extabit.com/file/2du0i9fv7xmev/csmods.team.ave.1080.part02.rar
http://extabit.com/file/2du0i9fqxr06f/csmods.team.ave.1080.part01.rar
Moj folder z xxx: http://b15d9f88.linkbabes.com
Użytkownik VIP

sliwka1921Użytkownik

#26 | Dodany: 19 Wrzesień 2012 15:40

prosze o 2 part formad matroska 5 12 GB na upload
Użytkownik VIP

rockyvssnakeUżytkownik

#27 | Dodany: 9 Kwiecień 2013 18:38

The Avengers 3D (2012) 3D H-SBS BluRay 1080p AC-3 x264 Dubbing PL

MEDIAINFO:
Video
ID : 1
Format : AVC
Format/Info : Advanced Video Codec
Format profile : High@L5.1
Format settings, CABAC : Yes
Format settings, ReFrames : 2 frames
Codec ID : V_MPEG4/ISO/AVC
Duration : 2h 22mn
Bit rate : 13.5 Mbps
Width : 1 920 pixels
Height : 1 080 pixels
Display aspect ratio : 16:9
Frame rate mode : Constant
Frame rate : 23.976 fps
Color space : YUV
Chroma subsampling : 4:2:0
Bit depth : 8 bits
Scan type : Progressive
Bits/(Pixel*Frame) : 0.272
Stream size : 13.5 GiB (94%)
Title : The Avengers 3D
Writing library : x264 core

Audio
Format : AC-3
Codec ID : A_AC3
Duration : 2h 22mn
Bit rate : 640 Kbps
Channel(s) : 6 channels
Channel positions : Front: L C R, Side: L R, LFE
Sampling rate : 48.0 KHz
Bit depth : 16 bits
Compression mode : Lossy
Title : Polish AC3
Language : Polish


można pobierać zamiennie z serwerów | Dane naprawcze 10 %

Uwaga! Linki nie zakodowane tylko dla zarejestrowanych użytkowników!

Nie masz konta? Zarejestruj się za darmo!
----------------
Links are not encoded only for registered users only! Plese login or register!


lub

Uwaga! Linki nie zakodowane tylko dla zarejestrowanych użytkowników!

Nie masz konta? Zarejestruj się za darmo!
----------------
Links are not encoded only for registered users only! Plese login or register!


lub

Uwaga! Linki nie zakodowane tylko dla zarejestrowanych użytkowników!

Nie masz konta? Zarejestruj się za darmo!
----------------
Links are not encoded only for registered users only! Plese login or register!
Użytkownik VIP

kameleon3Użytkownik

#28 | Dodany: 9 Wrzesień 2013 18:23

The Avengers (2012) PLDUB.BRRip.XviD-BiDA / DUBBING PL


DANE TECHNICZNE



Format : AVI at 688 Kbps
Length : 703 MiB for 2h 22mn 54s 941ms

Video #0 : MPEG-4 Visual at 565 Kbps
Aspect : 624 x 336 (1.857) at 23.976 fps

Audio #0 : AC-3 at 112 Kbps
Infos : 2 channels, 48.0 KHz


Download:

Catshare:
Uwaga! Linki nie zakodowane tylko dla zarejestrowanych użytkowników!

Nie masz konta? Zarejestruj się za darmo!
----------------
Links are not encoded only for registered users only! Plese login or register!


Rapidgator:
Uwaga! Linki nie zakodowane tylko dla zarejestrowanych użytkowników!

Nie masz konta? Zarejestruj się za darmo!
----------------
Links are not encoded only for registered users only! Plese login or register!


Informacje

Jeżeli chcesz skomentować artykuł musisz być zarejestrowany na stronie.