EXSite.pl - Portal ze wszystkim Mamy tutaj wszystko

NIE MASZ JESZCZE KONTA? ZAREJESTRUJ SIĘ ZA DARMO!   
Przypomnij hasło X

Katy Perry - Part Of Me 3D (SBS) 2012 ENG.BluRay.1080p.x264.Side-by-Side

Dodał: HOOLIMAN 17 Wrzesień 2012 21:29


Katy Perry - Part Of Me 3D (SBS) 2012 ENG.BluRay.1080p.x264.Side-by-Side

Katy Perry - Part Of Me 3D (SBS) 2012 ENG.BluRay.1080p.x264.Side-by-Side

Katy Perry - Part Of Me 3D (SBS) 2012 ENG.BluRay.1080p.x264.Side-by-Side
Film w wersji 3D Side-by-Side.
Do odtworzenia filmu WYMAGANY odpowiedni sprzęt (TV 3D).


gatunek: Dokumentalny, Muzyczny, Koncert
premiera: 5 lipca 2012 (świat)
produkcja: USA

Dokumentalno-koncertowy film "Katy Perry: Part of Me 3D" trafi na ekrany ameryka?skich kin 5. lipca. Dwa tygodnie wcześniej odbędzie się premiera klipu do nowego utworu Katy "Wide Awake". Film opowiada historię Katy Perry od czasów, gdy rozpoczynała karierę jako wokalistka gospelowa jeszcze pod swoim autentycznym nazwiskiem Katy Hudson do ubiegłorocznej trasy koncertowej California Dreams Tour. Katy opowiada też przed kamerą o swoim dzieci?stwie, ujawnia kulisy przygotowa? do występów oraz zdradza nieco sekretów z życia osobistego, m.in. mówi o rozwodzie z brytyjskim aktorem komediowym Russellem Brandem. Film zawiera także nagranie koncertu, który odbył się 23. listopada 2011 roku w Staples Center w Los Angeles w ramach trasy California Dreams Tour.




Ogólne:

Format : Matroska (MKV)
Rozmiar pliku : 6,77 GB
Czas trwania : 1h 33 min.
Całkowita przepływność bitów : 10,4 Mb/s

Wideo:

Format : AVC
Profil formatu : High@L4.1
Czas trwania : 1h 33 min.
Przepływność bitów : 9.516 Kb/s
Szerokość : 1.920 pikseli
Wysokość : 1.080 pikseli
Proporcje obrazu : 16:9
Szybkość wyświetlania klatek : 23,976 kl/s
Rozmiar strumienia : 6,22 GB (92%)

Audio:

Format : AC-3
Czas trwania : 1h 33 min.
Rodzaj przepływności : Stała
Przepływność bitów : 640 Kb/s
Kanały : 6 kanałów
Rozmieszczenie kanałów : Front: L C R, Side: L R, LFE
Częstotliwość próbkowania : 48,0 KHz
BitDepth/String : 16 bitów
Rozmiar strumienia : 428 MB (6%)
Język : Angielski


Dane Naprawcze: 5%

Przykładowa instrukcja jak odpalić film 3D SBS na TV Samsunga
Kopiujesz film na zewnętrzny dysk twardy lub pen-drive i podłączasz do gniazda USB w TV. Na telewizorze pojawią się dwie opcje do wyboru, jedna to aktualizacja oprogramowania a druga Media Play, wybierasz Media Play i otwiera się program samsunga do odtwarzania plików multimedialnych, wchodzisz w zakładkę "filmy" i tam będą wszystkie filmy które masz na Dysku lub Pendrive. Odpalasz film 3D Side-by-Side i na pilocie z telewizora wciskasz guzik 3D a następnie wybierasz tryb "obraz obok obrazu", pozostaje tylko założyć i włączyć okulary i cieszymy się świetnymi efektami 3D :)



Katy Perry - Part Of Me 3D (SBS) 2012 ENG.BluRay.1080p.x264.Side-by-Side
Uwaga! Linki nie zakodowane tylko dla zarejestrowanych użytkowników!

Nie masz konta? Zarejestruj się za darmo!
----------------
Links are not encoded only for registered users only! Plese login or register!




Zobacz inne moje newsy na EXSite.pl

Użytkownik VIP

HOOLIMANVIP

#1 | Dodany: 17 Wrzesień 2012 21:29

Użytkownik VIP

poczesaniec1Użytkownik

#2 | Dodany: 18 Wrzesień 2012 12:00

turbobit offline jest
Użytkownik VIP

takipiotrUżytkownik

#3 | Dodany: 19 Wrzesień 2012 10:22

RAPIDGATOR offline
Użytkownik VIP

namex2Użytkownik

#4 | Dodany: 20 Wrzesień 2012 12:35

hellshare.pl/ offline ;(
Użytkownik VIP

KontropUżytkownik

#5 | Dodany: 22 Wrzesień 2012 09:36

Katy Perry Part of Me 3D (2012) 1080p Half SBS ENG - 3DSBS Release

Dane techniczne:


Format : Matroska
Format version : Version 2
File size : 7.75 GB
Duration : 1h 33mn
Overall bit rate : 11.9 Mbps
Movie name : Katy Perry: Part of Me 3D - 3DSBS.COM
Encoded date : UTC 2012-09-17 17:25:25

Video
ID : 1
Format : AVC
Format/Info : Advanced Video Codec
Format profile : High@L4.1
Format settings, CABAC : Yes
Format settings, ReFrames : 2 frames
Muxing mode : Header stripping
Codec ID : V_MPEG4/ISO/AVC
Duration : 1h 33mn
Bit rate : 9 482 Kbps
Width : 1 920 pixels
Height : 1 080 pixels
Display aspect ratio : 16:9
Frame rate mode : Constant
Frame rate : 23.976 fps
Color space : YUV
Chroma subsampling : 4:2:0
Bit depth : 8 bits
Scan type : Progressive
Bits/(Pixel*Frame) : 0.191
Stream size : 6.20 GiB (80%)
Writing library : x264 core
Default : Yes
Forced : No
Color primaries : BT.709
Transfer characteristics : BT.709
Matrix coefficients : BT.709

Audio #1
ID : 2
Format : DTS
Format/Info : Digital Theater Systems
Muxing mode : Header stripping
Codec ID : A_DTS
Duration : 1h 33mn
Bit rate mode : Constant
Bit rate : 1 510 Kbps
Channel(s) : 6 channels
Channel positions : Front: L C R, Side: L R, LFE
Sampling rate : 48.0 KHz
Bit depth : 24 bits
Compression mode : Lossy
Stream size : 1 010 MiB (13%)
Language : English
Default : Yes
Forced : No

Audio #2
ID : 3
Format : AC-3
Format/Info : Audio Coding 3
Mode extension : CM (complete main)
Format settings, Endianness : Big
Muxing mode : Header stripping
Codec ID : A_AC3
Duration : 1h 33mn
Bit rate mode : Constant
Bit rate : 640 Kbps
Channel(s) : 6 channels
Channel positions : Front: L C R, Side: L R, LFE
Sampling rate : 48.0 KHz
Bit depth : 16 bits
Compression mode : Lossy
Stream size : 428 MiB (5%)
Language : English
Default : No
Forced : No





http://www.netload.in/dateizV33acHT2R/Katy-Perry-Part-of-Me-3DH-SBS-3DSBS.COM.part01.rar.htm
http://www.netload.in/dateiqQHRhBRhPT/Katy-Perry-Part-of-Me-3DH-SBS-3DSBS.COM.part02.rar.htm
http://www.netload.in/dateiUsf6crDdTm/Katy-Perry-Part-of-Me-3DH-SBS-3DSBS.COM.part03.rar.htm
http://www.netload.in/dateiFweHUFSoPr/Katy-Perry-Part-of-Me-3DH-SBS-3DSBS.COM.part04.rar.htm
http://www.netload.in/datei8SIlcMiUJK/Katy-Perry-Part-of-Me-3DH-SBS-3DSBS.COM.part05.rar.htm
http://www.netload.in/datei8nD7JJ9v3S/Katy-Perry-Part-of-Me-3DH-SBS-3DSBS.COM.part06.rar.htm
http://www.netload.in/dateicbVZKgPDD9/Katy-Perry-Part-of-Me-3DH-SBS-3DSBS.COM.part07.rar.htm
http://www.netload.in/dateikETDZgHuQ6/Katy-Perry-Part-of-Me-3DH-SBS-3DSBS.COM.part08.rar.htm
http://www.netload.in/dateiASFSxuc4LG/Katy-Perry-Part-of-Me-3DH-SBS-3DSBS.COM.part09.rar.htm
http://www.netload.in/dateicLuLU7AbTV/Katy-Perry-Part-of-Me-3DH-SBS-3DSBS.COM.part10.rar.htm
http://www.netload.in/dateinDtC5ATO3Q/Katy-Perry-Part-of-Me-3DH-SBS-3DSBS.COM.part11.rar.htm
http://www.netload.in/dateiGfX1VBZdVy/Katy-Perry-Part-of-Me-3DH-SBS-3DSBS.COM.part12.rar.htm
http://www.netload.in/datei6NcRkVntf0/Katy-Perry-Part-of-Me-3DH-SBS-3DSBS.COM.part13.rar.htm
http://www.netload.in/dateisKzXXd4MdF/Katy-Perry-Part-of-Me-3DH-SBS-3DSBS.COM.part14.rar.htm
http://www.netload.in/dateiyg6y13eX1R/Katy-Perry-Part-of-Me-3DH-SBS-3DSBS.COM.part15.rar.htm
http://www.netload.in/dateivmfjVs1tyk/Katy-Perry-Part-of-Me-3DH-SBS-3DSBS.COM.part16.rar.htm
LG47LW5500
LG BD660
Dreambox 8000 HD
Dreambox 800 HD

Informacje

Jeżeli chcesz skomentować artykuł musisz być zarejestrowany na stronie.