EXSite.pl - Portal ze wszystkim Mamy tutaj wszystko

NIE MASZ JESZCZE KONTA? ZAREJESTRUJ SIĘ ZA DARMO!   
Przypomnij hasło X

Faceci w czerni 3 / Men in Black 3 (2012) PL.mini-HD.1080p.Over-Under.AC3.BluRay.x264-LEON.345

Dodał: djkazik 30 Wrzesień 2012 15:41



Faceci w czerni 3 / Men in Black 3 (2012) PL.mini-HD.1080p.Over-Under.AC3.BluRay.x264-LEON.345

Faceci w czerni 3 / Men in Black 3 (2012) PL.mini-HD.1080p.Over-Under.AC3.BluRay.x264-LEON.345

Faceci w czerni 3 / Men in Black 3 (2012) PL.mini-HD.1080p.Over-Under.AC3.BluRay.x264-LEON.345

###Info:###

czas trwania: 1 godz. 46 min.
gatunek: Komedia, Sci-Fi
premiera: 25 maja 2012 (Polska) 20 maja 2012 (świat)
produkcja: USA
reżyseria: Barry Sonnenfeld
scenariusz: Etan Cohen, David Koepp

###Opis:###

Kolejna część kultowej serii o agentach specjalnej jednostki rządowej. Zadaniem jednostki jest zajmowanie się kontaktami z Obcymi i utrzymywaniem społecze?stwa w nieświadomości, jak częste są wizyty przybyszów z kosmosu... Pojawiają się bez zapowiedzi, znikają bez śladu. Ich znakiem rozpoznawczym są czarne garnitury i okulary... a także cały zestaw kosmicznych gadżetów. Tym razem dwaj najbardziej znani agenci MIB zmierzą się z kosmitami w niezwykłym śledztwie pokonującym bariery nie tylko przestrzeni, ale i czasu. Agenci w czerni bronią Ziemi przed kosmitami już po raz trzeci - dwie pierwsze części cyklu zyskały sobie na całym świecie rzeszę wiernych fanów, zarabiając odpowiednio 600 i 400 milionów dolarów.

###Dane Techniczne:###

General
Unique ID : 205799771523549740314439314189327295335
(0x9AD39820EEFB04079158ACCD4BCC6367)
Complete name : D:FilmyFilmy 3DSzablonWstawkaMEN_IN_BLACK_3D_mini(Leon
345)MEN_IN_BLACK_3Dmini(Leon 345).mkv
Format : Matroska
Format version : Version 2
File size : 3.91 GiB
Duration : 1h 45mn
Overall bit rate : 5 290 Kbps
Movie name : MEN_IN_BLACK_3.Title800.Bluray3DRip
Encoded date : UTC 2012-09-10 12:08:00
Writing application : mkvmerge v5.7.0 ('The Whirlwind' built on Jul 8 2012
20:08:51
Writing library : libebml v1.2.3 + libmatroska v1.3.0

Video
ID : 1
Format : AVC
Format/Info : Advanced Video Codec
Format profile : High@L4.1
Format settings, CABAC : Yes
Format settings, ReFrames : 2 frames
Codec ID : V_MPEG4/ISO/AVC
Duration : 1h 45mn
Bit rate : 4 737 Kbps
Width : 1 920 pixels
Height : 1 080 pixels
Display aspect ratio : 16:9
Frame rate mode : Constant
Frame rate : 23.976 fps
Color space : YUV
Chroma subsampling : 4:2:0
Bit depth : 8 bits
Scan type : Progressive
Bits/(Pixel*Frame) : 0.095
Stream size : 3.50 GiB (90%)
Title : Rip by Leon 345
Writing library : x264 core
Default : Yes
Forced : No
Color primaries : BT.709
Transfer characteristics : BT.709
Matrix coefficients : BT.709

Audio
ID : 2
Format : AC-3
Format/Info : Audio Coding 3
Mode extension : CM (complete main)
Format settings, Endianness : Big
Codec ID : A_AC3
Duration : 1h 45mn
Bit rate mode : Constant
Bit rate : 448 Kbps
Channel(s) : 6 channels
Channel positions : Front: L C R, Side: L R, LFE
Sampling rate : 48.0 KHz
Bit depth : 16 bits
Compression mode : Lossy
Stream size : 339 MiB (8%)
Title : AC3 5.1 Lektor PL
Language : Polish
Default : Yes
Forced : No

Menu
00:00:00.000 : en:(01)00:00:00:000
00:06:09.577 : en:(02)00:06:09:577
00:11:27.478 : en:(03)00:11:27:478
00:16:58.809 : en:(04)00:16:58:809
00:22:36.229 : en:(05)00:22:36:229
00:31:24.632 : en:(06)00:31:24:632
00:37:36.420 : en:(07)00:37:36:420
00:42:43.018 : en:(08)00:42:43:018
00:48:55.849 : en:(09)00:48:55:849
00:53:58.234 : en:(10)00:53:58:234
00:59:27.772 : en:(11)00:59:27:772
01:05:52.782 : en:(12)01:05:52:782
01:11:56.311 : en:(13)01:11:56:311
01:19:50.619 : en:(14)01:19:50:619
01:27:57.063 : en:(15)01:27:57:063
01:35:30.683 : en:(16)01:35:30:683

Source:
V:Men in Black 3 (2012) Blu-ray 3D 1080p AVC DD5.1 HDCLUB
A:Men in Black 3 (2012) Blu-ray CEE 1080p AVC DD5.1 HDCLUB



###2GB PARTS###

Uwaga! Linki nie zakodowane tylko dla zarejestrowanych użytkowników!

Nie masz konta? Zarejestruj się za darmo!
----------------
Links are not encoded only for registered users only! Plese login or register!


Użytkownik VIP

poczesaniec1Użytkownik

#1 | Dodany: 30 Wrzesień 2012 20:41

a to samo tylko nie mini hd?
Użytkownik VIP

krajniakkUżytkownik

#2 | Dodany: 30 Wrzesień 2012 21:29

na turbobit proszę
Użytkownik VIP

leon345Użytkownik

#3 | Dodany: 30 Wrzesień 2012 22:42

ok
Użytkownik VIP

polski88Użytkownik

#4 | Dodany: 1 Październik 2012 09:29

na rapigator prosze

Informacje

Jeżeli chcesz skomentować artykuł musisz być zarejestrowany na stronie.