EXSite.pl - Portal ze wszystkim Mamy tutaj wszystko

NIE MASZ JESZCZE KONTA? ZAREJESTRUJ SIĘ ZA DARMO!   
Przypomnij hasło X

Abraham Lincoln: Łowca Wampirów 3D (SBS) / Abraham Lincoln: Vampire Hunter (2012) Napisy PL BluRay.1080p.x264.Side-by-Side-HOOLIMAN

Dodał: HOOLIMAN 14 Październik 2012 21:14


Abraham Lincoln: Łowca Wampirów 3D (SBS) / Abraham Lincoln: Vampire Hunter (2012) Napisy PL BluRay.1080p.x264.Side-by-Side-HOOLIMAN

Abraham Lincoln: Łowca Wampirów 3D (SBS) / Abraham Lincoln: Vampire Hunter (2012) Napisy PL BluRay.1080p.x264.Side-by-Side-HOOLIMAN

Abraham Lincoln: Łowca Wampirów 3D (SBS) / Abraham Lincoln: Vampire Hunter (2012) Napisy PL BluRay.1080p.x264.Side-by-Side-HOOLIMAN
Film w wersji 3D Side-by-Side.
Do odtworzenia filmu WYMAGANY odpowiedni sprzęt (TV 3D).


gatunek: Fantasy, Horror, Akcja
premiera: 24 sierpnia 2012 (Polska) 18 czerwca 2012 (świat)
produkcja: USA

Film o 16 prezydencie USA Abrahamie Lincolnie, który jest świetnie wyszkolonym zabójcą wampirów. Jego matka została zabita przez istotę o nadprzyrodzonych mocach, co wywołało u niego chęć niszczenia krwiopijców i im podobnych stworze?.



Ogólne:

Format : Matroska (MKV)
Rozmiar pliku : 14,5 GB
Czas trwania : 1h 45 min.
Rodzaj całkowitej przepływności bitów : Zmienna
Całkowita przepływność bitów : 19,7 Mb/s

Wideo:

Format : AVC
Profil formatu : High@L5.1
Czas trwania : 1h 45 min.
Przepływność bitów : 17,1 Mb/s
Szerokość : 1.920 pikseli
Wysokość : 1.080 pikseli
Szybkość wyświetlania klatek : 23,976 kl/s
Rozmiar strumienia : 12,6 GB (87%)

Audio 1:

Format : AC-3
Czas trwania : 1h 45 min.
Rodzaj przepływności : Stała
Przepływność bitów : 640 Kb/s
Kanały : 6 kanałów
Rozmieszczenie kanałów : Front: L C R, Side: L R, LFE
Częstotliwość próbkowania : 48,0 KHz
BitDepth/String : 16 bitów
Rozmiar strumienia : 481 MB (3%)
Język : Angielski

Audio 2:

Format : DTS
Czas trwania : 1h 45 min.
Rodzaj przepływności : Zmienna
Przepływność bitów : 1.597 Kb/s / 1.510 Kb/s
Kanały : 8 kanałów / 6 kanałów
Rozmieszczenie kanałów : Front: L C R, Side: L R, Back: L R, LFE / Front: L C R, Side: L R, LFE
Częstotliwość próbkowania : 48,0 KHz
BitDepth/String : 24 bity
Język : Angielski

W Newsie znajdują się również osobne napisy w formatach TXT, SRT, SUB

Dane Naprawcze: 5%

Przykład jak odpalić Napisy PL do filmu 3D na TV Samsung: (testowane na TV SAMSUNG UE40C7000)
Na dysku zewnętrznym utwórz nowy folder i nazwij go jak chcesz, dodaj do tego folderu plik wideo oraz plik z napisami TXT (pamiętaj, aby plik tekstowy miał dokładnie taką samą nazwę jak plik wideo) w folderze nie powinny znajdować się żadne inne pliki oprócz pliku wideo i pliku TXT. Teraz jak uruchomisz film na telewizorze za pomocą Media Play to napisy automatycznie się wczytają.. Jeśli w napisach nie będzie polskich znaków to naciśnij na pilocie guzik „TOOLS” a następnie przejdź do zakładki „Ustawienia Napisów” i zmie? kodowanie na „Europa środkowa”
Napisy wyświetlają się prawidłowo w trybie 3D oraz 2D !!!

Przykładowa instrukcja jak odpalić film 3D SBS na TV Samsunga
Kopiujesz film na zewnętrzny dysk twardy lub pen-drive i podłączasz do gniazda USB w TV. Na telewizorze pojawią się dwie opcje do wyboru, jedna to aktualizacja oprogramowania a druga Media Play, wybierasz Media Play i otwiera się program samsunga do odtwarzania plików multimedialnych, wchodzisz w zakładkę "filmy" i tam będą wszystkie filmy które masz na Dysku lub Pendrive. Odpalasz film 3D Side-by-Side i na pilocie z telewizora wciskasz guzik 3D a następnie wybierasz tryb "obraz obok obrazu", pozostaje tylko założyć i włączyć okulary i cieszymy się świetnymi efektami 3D :)



Abraham Lincoln: Łowca Wampirów 3D (SBS) / Abraham Lincoln: Vampire Hunter (2012) Napisy PL BluRay.1080p.x264.Side-by-Side-HOOLIMAN
Uwaga! Linki nie zakodowane tylko dla zarejestrowanych użytkowników!

Nie masz konta? Zarejestruj się za darmo!
----------------
Links are not encoded only for registered users only! Plese login or register!




Zobacz inne moje newsy na EXSite.pl

Użytkownik VIP

HOOLIMANVIP

#1 | Dodany: 14 Październik 2012 21:14

Użytkownik VIP

djkazikUżytkownik

#2 | Dodany: 14 Październik 2012 22:09


Abraham Lincoln: Łowca wampirów 3D (OU) / Abraham Lincoln: Vampire Hunter (2012) PL.mini-HD.1080p.Over-Under.Dualaudio.AC3.BluRay.x264-LEON345 / Lekto


###Dane Techniczne:###




###2GB PARTS###

Uwaga! Linki nie zakodowane tylko dla zarejestrowanych użytkowników!

Nie masz konta? Zarejestruj się za darmo!
----------------
Links are not encoded only for registered users only! Plese login or register!

Użytkownik VIP

BlaineUżytkownik

#3 | Dodany: 14 Październik 2012 22:47

witam, czy napisy sa juz przeobione pod 3D?
Pozdrawiam i dzieki za up
Użytkownik VIP

kazimsUżytkownik

#4 | Dodany: 14 Październik 2012 23:17

Abraham Lincoln: Vampire Hunter 3D | 2012 | English .DTS7.1 - T?rk?e Dublaj | Half_SBS | 1080p


General

Format : Matroska
Duration : 1h 45mn
Overall bit rate : 1 999 Kbps
Movie name : halfsbs.co.nu
Encoded date : UTC 2012-10-13 11:27:23
Writing application : mkvmerge v5.6.0 ('Kenya Kane') built on Jun 3 2012 10:46:30
Writing library : libebml v1.2.2 + libmatroska v1.3.0

Video #1

ID : 1
Format : AVC
Format/Info : Advanced Video Codec
Format profile : High@L4.1
Format settings, CABAC : Yes
Format settings, ReFrames : 2 frames
Muxing mode : Header stripping
Codec ID : V_MPEG4/ISO/AVC
Duration : 1h 45mn
Bit rate : 171 Kbps
Width : 1 920 pixels
Height : 800 pixels
Display aspect ratio : 2.40:1
Frame rate : 23.976 fps
Color space : YUV
Chroma subsampling : 4:2:0
Bit depth : 8 bits
Scan type : Progressive
Bits/(Pixel*Frame) : 0.005
Stream size : 128 MiB (9%)

Audio #2

ID : 2
Format : DTS
Format/Info : Digital Theater Systems
Format profile : MA / Core
Muxing mode : Header stripping
Codec ID : A_DTS
Duration : 1h 45mn
Bit rate mode : Variable
Bit rate : 1 597 Kbps / 1 510 Kbps
Channel(s) : 8 channels / 6 channels
Channel positions : Front: L C R, Side: L R, Back: L R, LFE / Front: L C R, Side: L R, LFE
Sampling rate : 48.0 KHz
Bit depth : 24 bits
Compression mode : Lossless / Lossy
Language : English

Audio #3

ID : 3
Format : AC-3
Format/Info : Audio Coding 3
Mode extension : CM (complete main)
Muxing mode : Header stripping
Codec ID : A_AC3
Duration : 1h 45mn
Bit rate mode : Constant
Bit rate : 192 Kbps
Channel(s) : 2 channels
Channel positions : Front: L R
Sampling rate : 44.1 KHz
Bit depth : 16 bits
Compression mode : Lossy
Delay relative to video : 9ms
Stream size : 144 MiB (10%)
Language : Turkish

PASSWORD= halfsbs

Not: Please DO NOT UPLOAD to other sites


Turbobit.Net

http://bc.vc/7uU8nB
http://bc.vc/corl6Q
http://bc.vc/X2H9XM
http://bc.vc/fEiqby
http://bc.vc/ToPAtz
http://bc.vc/gvM4VB
http://bc.vc/4qLhYv


Uploaded.Net

http://bc.vc/MNlUH8
http://bc.vc/eX3sxU
http://bc.vc/2hT69J
http://bc.vc/04pLVe
http://bc.vc/IHuvOa
http://bc.vc/mBGMAY
http://bc.vc/vgA7xb


[b]Other More 3D[/b]

http://bc.vc/7CG95z
Użytkownik VIP

KontropUżytkownik

#5 | Dodany: 15 Październik 2012 09:49

Abraham Lincoln: Vampire Hunter 3D (2012) 1080p Half-SBS ENG-DTS 7.1 - 3DSBS Release

Dane techniczne:


Format : Matroska
File size : 8.76 GB
Duration : 1h 45mn
Overall bit rate mode : Variable
Overall bit rate : 11.9 Mbps
Movie name : Abraham Lincoln 3D - 3DSBS.COM
Encoded date : UTC 2012-10-13 00:43:55

Video
ID : 1
Format : AVC
Format/Info : Advanced Video Codec
Format profile : High@L4.1
Format settings, CABAC : Yes
Format settings, ReFrames : 2 frames
Duration : 1h 45mn
Bit rate : 10.1 Mbps
Width : 1 920 pixels
Height : 800 pixels
Display aspect ratio : 2.40:1
Frame rate mode : Constant
Frame rate : 23.976 fps
Color space : YUV
Chroma subsampling : 4:2:0
Bit depth : 8 bits
Scan type : Progressive
Bits/(Pixel*Frame) : 0.275
Stream size : 7.42 GiB (85%)
Writing library : x264 core
Default : Yes

Audio
ID : 2
Format : DTS
Format/Info : Digital Theater Systems
Format profile : MA / Core
Codec ID : A_DTS
Duration : 1h 45mn
Bit rate mode : Variable
Bit rate : 1 597 Kbps / 1 510 Kbps
Channel(s) : 8 channels / 6 channels
Sampling rate : 48.0 KHz
Bit depth : 24 bits
Compression mode : Lossless / Lossy
Language : English
Default : Yes
Forced : No




http://www.netload.in/dateizhZLD9yEIY/Abraham-Lincoln-3D-H-SBS-3DSBS.COM.part01.rar.htm
http://www.netload.in/dateiNypKumdOCG/Abraham-Lincoln-3D-H-SBS-3DSBS.COM.part02.rar.htm
http://www.netload.in/dateil7BhaJrniP/Abraham-Lincoln-3D-H-SBS-3DSBS.COM.part03.rar.htm
http://www.netload.in/dateisjl7z3MBgb/Abraham-Lincoln-3D-H-SBS-3DSBS.COM.part04.rar.htm
http://www.netload.in/dateiC4kH6jBnop/Abraham-Lincoln-3D-H-SBS-3DSBS.COM.part05.rar.htm
http://www.netload.in/dateipDt8z62xcJ/Abraham-Lincoln-3D-H-SBS-3DSBS.COM.part06.rar.htm
http://www.netload.in/dateisowieTa3sz/Abraham-Lincoln-3D-H-SBS-3DSBS.COM.part07.rar.htm
http://www.netload.in/dateiYtRWrWH1FU/Abraham-Lincoln-3D-H-SBS-3DSBS.COM.part08.rar.htm
http://www.netload.in/dateipVdAFSvGFz/Abraham-Lincoln-3D-H-SBS-3DSBS.COM.part09.rar.htm
http://www.netload.in/dateiE6cFriwpCQ/Abraham-Lincoln-3D-H-SBS-3DSBS.COM.part10.rar.htm
http://www.netload.in/datei8vXs74TrGj/Abraham-Lincoln-3D-H-SBS-3DSBS.COM.part11.rar.htm
http://www.netload.in/dateizuxrWkZgJc/Abraham-Lincoln-3D-H-SBS-3DSBS.COM.part12.rar.htm
http://www.netload.in/dateiperHs9ezqD/Abraham-Lincoln-3D-H-SBS-3DSBS.COM.part13.rar.htm
http://www.netload.in/dateiHFYKuAgCL3/Abraham-Lincoln-3D-H-SBS-3DSBS.COM.part14.rar.htm
http://www.netload.in/datei07HhRANVZy/Abraham-Lincoln-3D-H-SBS-3DSBS.COM.part15.rar.htm
http://www.netload.in/dateig8f5jGM3DU/Abraham-Lincoln-3D-H-SBS-3DSBS.COM.part16.rar.htm
http://www.netload.in/datei0wdVkODCl7/Abraham-Lincoln-3D-H-SBS-3DSBS.COM.part17.rar.htm
http://www.netload.in/dateiCcZAoCNTzX/Abraham-Lincoln-3D-H-SBS-3DSBS.COM.part18.rar.htm
LG47LW5500
LG BD660
Dreambox 8000 HD
Dreambox 800 HD
Użytkownik VIP

robertd1972Użytkownik

#6 | Dodany: 15 Październik 2012 10:30

HOOLIMAN
Napisz proszę czy wersja jest z pasami czy bez.Dzięki z góry.
Użytkownik VIP

LeszekkusUżytkownik

#7 | Dodany: 15 Październik 2012 15:51

Tak ma dwa pasy, jeden dla kierowcy, a drugi dla pasżera;)
Użytkownik VIP

dajmitujacitezdamUżytkownik

#8 | Dodany: 15 Październik 2012 22:50

suchara jebnąłeś aż się stodoła niedaleko zapaliła , zapierdalam z kocem żeby gasić
Użytkownik VIP

IreniaUżytkownik

#9 | Dodany: 16 Październik 2012 13:19

Hooli proszę mini-hd ;-)
Użytkownik VIP

brutepassUżytkownik

#10 | Dodany: 17 Październik 2012 09:50

czy będzie wstawka minihd z polskim lektorem/?

Informacje

Jeżeli chcesz skomentować artykuł musisz być zarejestrowany na stronie.