EXSite.pl - Portal ze wszystkim Mamy tutaj wszystko

NIE MASZ JESZCZE KONTA? ZAREJESTRUJ SIĘ ZA DARMO!   
Przypomnij hasło X

Hotel Transylwania / Hotel Transylvania (2012) 1080p.3D.Blu-ray.HSBS.X264.DTS.ML-SirYo

Dodał: Marrakech 13 Styczeń 2013 10:10


Hotel Transylwania / Hotel Transylvania (2012) 1080p.3D.Blu-ray.HSBS.X264.DTS.ML-SirYo


Hotel Transylwania / Hotel Transylvania (2012) 1080p.3D.Blu-ray.HSBS.X264.DTS.ML-SirYo

W Hotelu Transylvania potwory mogą odpocząć z daleka od ciekawskich ludzkich oczu. Gospodarzami hotelu są Hrabia Dracula oraz jego 116-letnia córka Mavis, zachowująca się dokładnie tak, jak inne nastolatki. Kiedy Mavis łamie świętą zasadę potworów polegającą na unikaniu kontaktów z ludźmi, wprowadza tym samym w ruch ła?cuch wydarze?, które zagrażają hotelowi Transylwania i egzystencji

DANE TECHNiCZNE / RELEASE .NFO

Video
ID                               : 1
Format                           : AVC
Format/Info                      : Advanced Video Codec
Format profile                   : High@L4.1
Format settings, CABAC           : Yes
Format settings, ReFrames        : 4 frames
Codec ID                         : V_MPEG4/ISO/AVC
Duration                         : 1h 31mn
Bit rate                         : 10.3 Mbps
Width                            : 1 920 pixels
Height                           : 1 080 pixels
Display aspect ratio             : 16:9
Frame rate                       : 23.976 fps
Color space                      : YUV
Chroma subsampling               : 4:2:0
Bit depth                        : 8 bits
Scan type                        : Progressive
Bits/(Pixel*Frame)               : 0.208
Stream size                      : 6.60 GiB (71%)
Writing library                  : x264 core 120 r2120 0c7dab9
Encoding settings                : cabac=1 / ref=4 / deblock=1:-3:-3 / analyse=0x3:0x113 / me=umh / subme=9 / psy=1 / psy_rd=1.00:0.15 / mixed_ref=1 / me_range=16 / chroma_me=1 / trellis=1 / 8x8dct=1 / cqm=0 / deadzone=21,11 / fast_pskip=1 / chroma_qp_offset=-3 / threads=18 / sliced_threads=0 / nr=0 / decimate=1 / interlaced=0 / bluray_compat=0 / constrained_intra=0 / bframes=3 / b_pyramid=2 / b_adapt=1 / b_bias=0 / direct=3 / weightb=1 / open_gop=0 / weightp=2 / keyint=250 / keyint_min=23 / scenecut=40 / intra_refresh=0 / rc_lookahead=40 / rc=crf / mbtree=1 / crf=16.0 / qcomp=0.60 / qpmin=10 / qpmax=69 / qpstep=4 / ip_ratio=1.40 / aq=1:1.00
Language                         : English

Audio #1
ID                               : 2
Format                           : DTS
Format/Info                      : Digital Theater Systems
Codec ID                         : A_DTS
Duration                         : 1h 31mn
Bit rate mode                    : Constant
Bit rate                         : 1 510 Kbps
Channel(s)                       : 6 channels
Channel positions                : Front: L C R, Side: L R, LFE
Sampling rate                    : 48.0 KHz
Bit depth                        : 24 bits
Compression mode                 : Lossy
Stream size                      : 988 MiB (10%)
Title                            : English DTS5.1
Language                         : English


Waga: 9.28gb
Zawartość Uploadu: Plik .mkv
Wersja Językowa: eng
Dane Naprawcze: 2%
Hasło: Brak



DOWNLOAD LiNKS - 1PART=900MB:
Bez hasła || 2% danych naprawczych || Można pobierać na przemian
Uwaga! Linki nie zakodowane tylko dla zarejestrowanych użytkowników!

Nie masz konta? Zarejestruj się za darmo!
----------------
Links are not encoded only for registered users only! Plese login or register!



Użytkownik VIP

MarrakechVIP

#1 | Dodany: 13 Styczeń 2013 10:13

odpuscilem muxowanie tego pseudo-audio kinowskie wink
Użytkownik VIP

krychubbUżytkownik

#2 | Dodany: 13 Styczeń 2013 13:10

Marrakech daj jakieś info kiedy bedzie z dubbingiem
Użytkownik VIP

NeO3145Użytkownik

#3 | Dodany: 13 Styczeń 2013 16:18

tez poczekam az normalny dubbing bedzie
Użytkownik VIP

qbaso2Użytkownik

#4 | Dodany: 13 Styczeń 2013 16:56

Zanim będzie dubbing profesjonalny troche minie a bedą następne fajne nowości więc ja wybieram tą wersję oczywiście napisy pl dociągnę, chyba że Uploader wstawiłby napisy do tego filmu takie które bedą dobrze synchronizowane także moja prośba do uploadera o dodanie napisów pl. Z góry dziękuję. Pozdrawiam
Użytkownik VIP

djdantoUżytkownik

#5 | Dodany: 13 Styczeń 2013 19:38

Ja to sie zastanawiam dlaczego ci co dawali na trubobita nagle przestali? Tak zaobserwowałem...
Użytkownik VIP

qbaso2Użytkownik

#6 | Dodany: 14 Styczeń 2013 09:08

Bardzo proszę uploadera o dodanie audio kinowego bo nie jest wcale takie złe powiedzialbym że jest naprawde bardzo dobre jesli chodzi o MD jakie były. Jeśli to nie problem to prosilbym dodać audio aby można było sobie je wmuxować. Z góry dzięki. poxdro
Użytkownik VIP

Zenk77Użytkownik

#7 | Dodany: 14 Styczeń 2013 19:25

dołączam się do prośby powyższej

może być na priv ;)
Użytkownik VIP

qbaso2Użytkownik

#8 | Dodany: 14 Styczeń 2013 19:42

Zenk77,
Witam, milo że ktoś dołącza sie do mojej prośby, chyba kolego będzie lepiej pobrać drugi film jakąs słabą wersję np 720 p dzdzielić programem audio i wmuxować je do tej wersji chyba będzie szybciej o ile ktoś wogóle doda to audio. Pozdrawiam
Użytkownik VIP

strupolUżytkownik

#9 | Dodany: 14 Styczeń 2013 22:02

dzięki wielkie za 4 ścieżki dźwiękowe gratis ok zawsze to więcej do ściągania ok
Użytkownik VIP

kizia88Użytkownik

#10 | Dodany: 17 Luty 2013 10:57

Hotel Transylwania 3D / Hotel Transylvania 3D (2012) 1080p.HSBS.BluRay.X264-SLiSU / Dubbing PL

Dane Techniczne

General           : Hot3D.mkv
Format            : Matroska at 10.4 Mbps
Wielkość/Długość  : 6.67 GiB for 1h 31mn 30s 912ms

Video #0          : AVC at 10.0 Mbps
Rozdzielczość     : 1920 x 1036 (1.853) at 23.976 fps

Audio #0          : AC-3 at 192 Kbps
Info              : 2 channels, 48.0 KHz
Język             : Polski Dubbing



Egofiles.com
Uwaga! Linki nie zakodowane tylko dla zarejestrowanych użytkowników!

Nie masz konta? Zarejestruj się za darmo!
----------------
Links are not encoded only for registered users only! Plese login or register!


Turbobit.net
Uwaga! Linki nie zakodowane tylko dla zarejestrowanych użytkowników!

Nie masz konta? Zarejestruj się za darmo!
----------------
Links are not encoded only for registered users only! Plese login or register!


CatShare.net
Uwaga! Linki nie zakodowane tylko dla zarejestrowanych użytkowników!

Nie masz konta? Zarejestruj się za darmo!
----------------
Links are not encoded only for registered users only! Plese login or register!


Uploaded.net
Uwaga! Linki nie zakodowane tylko dla zarejestrowanych użytkowników!

Nie masz konta? Zarejestruj się za darmo!
----------------
Links are not encoded only for registered users only! Plese login or register!
Użytkownik VIP

Freedom35VIP

#11 | Dodany: 11 Marzec 2013 13:55

Epoka Lodowcowa 4: Wędrówka kontynentów / Ice Age: Continental Drift (2012) 3D (SBS)

mini-HD.1080p.x264.Side.by.Side-HOOLIMAN / Dubbing PL

Kopia mini-HD 1080p = tylko 3,27 GB



iNFO:



Party 900 MB / Można pobierać na przemian / Bez hasła
Uwaga! Linki nie zakodowane tylko dla zarejestrowanych użytkowników!

Nie masz konta? Zarejestruj się za darmo!
----------------
Links are not encoded only for registered users only! Plese login or register!

Informacje

Jeżeli chcesz skomentować artykuł musisz być zarejestrowany na stronie.