EXSite.pl - Portal ze wszystkim Mamy tutaj wszystko

NIE MASZ JESZCZE KONTA? ZAREJESTRUJ SIĘ ZA DARMO!   
Przypomnij hasło X

Hotel Transylwania 3D / Hotel Transylvania 3D (2012) PLDUB.1080p.HSBS.BluRay.X264-SLiSU / DUBBiNG PL

Dodał: Marrakech 16 Luty 2013 11:50



Hotel Transylwania 3D / Hotel Transylvania 3D (2012) PLDUB.1080p.HSBS.BluRay.X264-SLiSU


Hotel Transylwania 3D / Hotel Transylvania 3D (2012) PLDUB.1080p.HSBS.BluRay.X264-SLiSU / DUBBiNG PL

W Hotelu Transylvania potwory mogą odpocząć z daleka od ciekawskich ludzkich oczu. Gospodarzami hotelu są Hrabia Dracula oraz jego 116-letnia córka Mavis, zachowująca się dokładnie tak, jak inne nastolatki. Kiedy Mavis łamie świętą zasadę potworów polegającą na unikaniu kontaktów z ludźmi, wprowadza tym samym w ruch ła?cuch wydarze?, które zagrażają hotelowi Transylwania i egzystencji potworów.

Hotel Transylwania 3D / Hotel Transylvania 3D (2012) PLDUB.1080p.HSBS.BluRay.X264-SLiSU / DUBBiNG PL Hotel Transylwania 3D / Hotel Transylvania 3D (2012) PLDUB.1080p.HSBS.BluRay.X264-SLiSU / DUBBiNG PL

DANE TECHNiCZNE / RELEASE .NFO



DOWNLOAD LiNKS - 1PART=900MB:
Bez hasła || 2% danych naprawczych || Można pobierać na przemian
Uwaga! Linki nie zakodowane tylko dla zarejestrowanych użytkowników!

Nie masz konta? Zarejestruj się za darmo!
----------------
Links are not encoded only for registered users only! Plese login or register!




Użytkownik VIP

MarrakechVIP

#1 | Dodany: 16 Luty 2013 11:50

brawo
Użytkownik VIP

TajniUżytkownik

#2 | Dodany: 16 Luty 2013 11:59

thx
Użytkownik VIP

esperanza1Użytkownik

#3 | Dodany: 16 Luty 2013 12:28

DVD5 -DVD9 POPROSZE I BEDZIE GIT.
Użytkownik VIP

marcint1230Użytkownik

#4 | Dodany: 16 Luty 2013 13:20

Witam!! Mogę prosić o turbobit !!
Użytkownik VIP

mariuszn1972Użytkownik

#5 | Dodany: 16 Luty 2013 13:56

wlasnie prosze turbobit.
Użytkownik VIP

nemomix51Użytkownik

#6 | Dodany: 16 Luty 2013 14:21

thx
Użytkownik VIP

MotyleczekUploader

#7 | Dodany: 16 Luty 2013 17:50



Hotel Transylwania 3D / Hotel Transylvania 3D (2012) PLDUB.1080p.HSBS.BluRay.X264-SLiSU / DUBBiNG PL





Video
ID : 1
Format : AVC
Format/Info : Advanced Video Codec
Format profile : High@L4.1
Format settings, CABAC : Yes
Format settings, ReFrames : 3 frames
Muxing mode : Header stripping
Codec ID : V_MPEG4/ISO/AVC
Duration : 1h 31mn
Bit rate : 10.0 Mbps
Width : 1 920 pixels
Height : 1 036 pixels
Display aspect ratio : 1.85:1
Frame rate mode : Constant
Frame rate : 23.976 fps
Color space : YUV
Chroma subsampling : 4:2:0
Bit depth : 8 bits
Scan type : Progressive
Bits/(Pixel*Frame) : 0.210
Stream size : 6.41 GiB (96%)
Writing library : x264 core
Default : Yes
Forced : No
Color primaries : BT.709
Transfer characteristics : BT.709
Matrix coefficients : BT.709

Audio
ID : 2
Format : AC-3
Format/Info : Audio Coding 3
Mode extension : CM (complete main)
Format settings, Endianness : Big
Muxing mode : Header stripping
Codec ID : A_AC3
Duration : 1h 31mn
Bit rate mode : Constant
Bit rate : 192 Kbps
Channel(s) : 2 channels
Channel positions : Front: L R
Sampling rate : 48.0 KHz
Bit depth : 16 bits
Compression mode : Lossy
Stream size : 126 MiB (2%)
Default : Yes
Forced : No



Uwaga! Linki nie zakodowane tylko dla zarejestrowanych użytkowników!

Nie masz konta? Zarejestruj się za darmo!
----------------
Links are not encoded only for registered users only! Plese login or register!
Użytkownik VIP

kizia88Użytkownik

#8 | Dodany: 17 Luty 2013 10:58

Hotel Transylwania 3D / Hotel Transylvania 3D (2012) 1080p.HSBS.BluRay.X264-SLiSU / Dubbing PL

Dane Techniczne

General           : Hot3D.mkv
Format            : Matroska at 10.4 Mbps
Wielkość/Długość  : 6.67 GiB for 1h 31mn 30s 912ms

Video #0          : AVC at 10.0 Mbps
Rozdzielczość     : 1920 x 1036 (1.853) at 23.976 fps

Audio #0          : AC-3 at 192 Kbps
Info              : 2 channels, 48.0 KHz
Język             : Polski Dubbing



Egofiles.com
Uwaga! Linki nie zakodowane tylko dla zarejestrowanych użytkowników!

Nie masz konta? Zarejestruj się za darmo!
----------------
Links are not encoded only for registered users only! Plese login or register!


Turbobit.net
Uwaga! Linki nie zakodowane tylko dla zarejestrowanych użytkowników!

Nie masz konta? Zarejestruj się za darmo!
----------------
Links are not encoded only for registered users only! Plese login or register!


CatShare.net
Uwaga! Linki nie zakodowane tylko dla zarejestrowanych użytkowników!

Nie masz konta? Zarejestruj się za darmo!
----------------
Links are not encoded only for registered users only! Plese login or register!


Uploaded.net
Uwaga! Linki nie zakodowane tylko dla zarejestrowanych użytkowników!

Nie masz konta? Zarejestruj się za darmo!
----------------
Links are not encoded only for registered users only! Plese login or register!
Użytkownik VIP

Freedom35VIP

#9 | Dodany: 11 Marzec 2013 13:55

Epoka Lodowcowa 4: Wędrówka kontynentów / Ice Age: Continental Drift (2012) 3D (SBS)

mini-HD.1080p.x264.Side.by.Side-HOOLIMAN / Dubbing PL

Kopia mini-HD 1080p = tylko 3,27 GB



iNFO:



Party 900 MB / Można pobierać na przemian / Bez hasła
Uwaga! Linki nie zakodowane tylko dla zarejestrowanych użytkowników!

Nie masz konta? Zarejestruj się za darmo!
----------------
Links are not encoded only for registered users only! Plese login or register!

Informacje

Jeżeli chcesz skomentować artykuł musisz być zarejestrowany na stronie.