EXSite.pl - Portal ze wszystkim Mamy tutaj wszystko

NIE MASZ JESZCZE KONTA? ZAREJESTRUJ SIĘ ZA DARMO!   
Przypomnij hasło X

Hotel Transylwania 3D (SBS) / Hotel Transylvania (2012) Dubbing PL mini-HD.x264.1080p.Side.by.Side-HOOLIMAN

Dodał: HOOLIMAN 16 Luty 2013 15:41


Hotel Transylwania 3D (SBS) / Hotel Transylvania (2012) Dubbing PL mini-HD.x264.1080p.Side.by.Side-HOOLIMAN

Hotel Transylwania 3D (SBS) / Hotel Transylvania (2012) Dubbing PL mini-HD.x264.1080p.Side.by.Side-HOOLIMAN

Hotel Transylwania 3D (SBS) / Hotel Transylvania (2012) Dubbing PL mini-HD.x264.1080p.Side.by.Side-HOOLIMAN
Film w wersji 3D Side-by-Side.
Do odtworzenia filmu WYMAGANY odpowiedni sprzęt (TV 3D).

Kopia mini-HD 1080p = tylko 3,27 GB


gatunek: Animacja Familijny Komedia
produkcja: USA
premiera: 9 listopada 2012 (Polska) 8 września 2012 (świat)

W Hotelu Transylvania potwory mogą odpocząć z daleka od ciekawskich ludzkich oczu. Gospodarzami hotelu są Hrabia Dracula oraz jego 118-letnia córka Mavis, zachowująca się dokładnie tak, jak inne nastolatki. Kiedy Mavis łamie świętą zasadę potworów polegającą na unikaniu kontaktów z ludźmi, wprowadza tym samym w ruch ła?cuch wydarze?, które zagrażają hotelowi Transylwania i egzystencji potworów.




Ogólne:

Format : Matroska (MKV)
Rozmiar pliku : 3,27 GB
Czas trwania : 1h 31 min.
Rodzaj całkowitej przepływności bitów : Zmienna
Całkowita przepływność bitów : 5.118 Kb/s

Wideo:

Format : AVC
Profil formatu : High@L5.1
Czas trwania : 1h 31 min.
Rodzaj przepływności : Zmienna
Przepływność bitów : 5.000 Kb/s
Szerokość : 1.920 pikseli
Wysokość : 1.080 pikseli
Proporcje obrazu : 16:9
Szybkość wyświetlania klatek : 23,976 kl/s
Rozmiar strumienia : 3,08 GB (94%)

Audio:

Format : AC-3
Czas trwania : 1h 31 min.
Rodzaj przepływności : Stała
Przepływność bitów : 192 Kb/s
Kanały : 2 kanały
Rozmieszczenie kanałów : Front: L R
Częstotliwość próbkowania : 48,0 KHz
BitDepth/String : 16 bitów
Rozmiar strumienia : 126 MB (4%)
Język : Polski

Dane Naprawcze: 5%

Przykładowa instrukcja jak odpalić film 3D SBS na TV Samsunga
Kopiujesz film na zewnętrzny dysk twardy lub pen-drive i podłączasz do gniazda USB w TV. Na telewizorze pojawią się dwie opcje do wyboru, jedna to aktualizacja oprogramowania a druga Media Play, wybierasz Media Play i otwiera się program samsunga do odtwarzania plików multimedialnych, wchodzisz w zakładkę "filmy" i tam będą wszystkie filmy które masz na Dysku lub Pendrive. Odpalasz film 3D Side-by-Side i na pilocie z telewizora wciskasz guzik 3D a następnie wybierasz tryb "obraz obok obrazu", pozostaje tylko założyć i włączyć okulary i cieszymy się świetnymi efektami 3D :)



Hotel Transylwania 3D (SBS) / Hotel Transylvania (2012) Dubbing PL mini-HD.x264.1080p.Side.by.Side-HOOLIMAN
Uwaga! Linki nie zakodowane tylko dla zarejestrowanych użytkowników!

Nie masz konta? Zarejestruj się za darmo!
----------------
Links are not encoded only for registered users only! Plese login or register!




Zobacz inne moje newsy na EXSite.pl

Użytkownik VIP

qbaso2Użytkownik

#2 | Dodany: 16 Luty 2013 15:43

Hooli jak zwykle dzięki:) i czekamy na więcej. Kiedy asterix w 3D będzie?? bo blu-raye już sie pojawiły??jeśli możesz to daj info. Pozdro
Użytkownik VIP

pinluxUżytkownik

#3 | Dodany: 16 Luty 2013 15:49

a jak z dzwiekiem prz mini hd wspolgra z obrazem bo mialem pare filmow ktorych nie dalo sie ogladac jak jest z twoimi ?
Użytkownik VIP

IreniaUżytkownik

#4 | Dodany: 16 Luty 2013 16:41

hooli ma wszystkie super wstawki śmiało możesz ściągać
Szacun hooli thx
Użytkownik VIP

czubmasterUżytkownik

#5 | Dodany: 16 Luty 2013 17:49

nice;]
http://townbeats.com/?usr=Fast4Ward
Użytkownik VIP

MotyleczekUploader

#6 | Dodany: 16 Luty 2013 17:51



Hotel Transylwania 3D / Hotel Transylvania 3D (2012) PLDUB.1080p.HSBS.BluRay.X264-SLiSU / DUBBiNG PL





Video
ID : 1
Format : AVC
Format/Info : Advanced Video Codec
Format profile : High@L4.1
Format settings, CABAC : Yes
Format settings, ReFrames : 3 frames
Muxing mode : Header stripping
Codec ID : V_MPEG4/ISO/AVC
Duration : 1h 31mn
Bit rate : 10.0 Mbps
Width : 1 920 pixels
Height : 1 036 pixels
Display aspect ratio : 1.85:1
Frame rate mode : Constant
Frame rate : 23.976 fps
Color space : YUV
Chroma subsampling : 4:2:0
Bit depth : 8 bits
Scan type : Progressive
Bits/(Pixel*Frame) : 0.210
Stream size : 6.41 GiB (96%)
Writing library : x264 core
Default : Yes
Forced : No
Color primaries : BT.709
Transfer characteristics : BT.709
Matrix coefficients : BT.709

Audio
ID : 2
Format : AC-3
Format/Info : Audio Coding 3
Mode extension : CM (complete main)
Format settings, Endianness : Big
Muxing mode : Header stripping
Codec ID : A_AC3
Duration : 1h 31mn
Bit rate mode : Constant
Bit rate : 192 Kbps
Channel(s) : 2 channels
Channel positions : Front: L R
Sampling rate : 48.0 KHz
Bit depth : 16 bits
Compression mode : Lossy
Stream size : 126 MiB (2%)
Default : Yes
Forced : No



Uwaga! Linki nie zakodowane tylko dla zarejestrowanych użytkowników!

Nie masz konta? Zarejestruj się za darmo!
----------------
Links are not encoded only for registered users only! Plese login or register!
Użytkownik VIP

_eRroORr_Użytkownik

#7 | Dodany: 16 Luty 2013 19:30

Hooli Ty to dajesz do pieca :P
Dziekuje ponownie...
Użytkownik VIP

brandyskaUżytkownik

#8 | Dodany: 16 Luty 2013 20:41

hooli dasz na catshare
Użytkownik VIP

slipknot1973Użytkownik

#9 | Dodany: 16 Luty 2013 21:29

a dźwięk 5.1 dało by się .Dzieki za wstawkę
Użytkownik VIP

TajniUżytkownik

#10 | Dodany: 17 Luty 2013 07:58

thx
Ja mam plik 10GB i dźwięk też 2.0 więc chętnie wymienię na ten ok

Polecam włączyć sobie Dolby Pro Logic II rozprowadza ona sygnał stereo na wszystkie głośniki kina domowego.
Głośniki z lewej strony grają kanał lewy z prawej prawy. Głośnik Centralny miesza te kanały.
Nie jest to 5.1 ale 5.1 to nie DTS więc dynamika na poziomie "stereo" - efekty przytłumione.
Użytkownik VIP

kizia88Użytkownik

#11 | Dodany: 17 Luty 2013 10:58

Hotel Transylwania 3D / Hotel Transylvania 3D (2012) 1080p.HSBS.BluRay.X264-SLiSU / Dubbing PL

Dane Techniczne

General           : Hot3D.mkv
Format            : Matroska at 10.4 Mbps
Wielkość/Długość  : 6.67 GiB for 1h 31mn 30s 912ms

Video #0          : AVC at 10.0 Mbps
Rozdzielczość     : 1920 x 1036 (1.853) at 23.976 fps

Audio #0          : AC-3 at 192 Kbps
Info              : 2 channels, 48.0 KHz
Język             : Polski Dubbing



Egofiles.com
Uwaga! Linki nie zakodowane tylko dla zarejestrowanych użytkowników!

Nie masz konta? Zarejestruj się za darmo!
----------------
Links are not encoded only for registered users only! Plese login or register!


Turbobit.net
Uwaga! Linki nie zakodowane tylko dla zarejestrowanych użytkowników!

Nie masz konta? Zarejestruj się za darmo!
----------------
Links are not encoded only for registered users only! Plese login or register!


CatShare.net
Uwaga! Linki nie zakodowane tylko dla zarejestrowanych użytkowników!

Nie masz konta? Zarejestruj się za darmo!
----------------
Links are not encoded only for registered users only! Plese login or register!


Uploaded.net
Uwaga! Linki nie zakodowane tylko dla zarejestrowanych użytkowników!

Nie masz konta? Zarejestruj się za darmo!
----------------
Links are not encoded only for registered users only! Plese login or register!
Użytkownik VIP

kaja5001Użytkownik

#12 | Dodany: 17 Luty 2013 11:09

super :D:D:D:D:D:D jak zawsze wszystkie twoje filmy
Użytkownik VIP

Freedom35VIP

#13 | Dodany: 11 Marzec 2013 13:54

Epoka Lodowcowa 4: Wędrówka kontynentów / Ice Age: Continental Drift (2012) 3D (SBS)

mini-HD.1080p.x264.Side.by.Side-HOOLIMAN / Dubbing PL

Kopia mini-HD 1080p = tylko 3,27 GB



iNFO:



Party 900 MB / Można pobierać na przemian / Bez hasła
Uwaga! Linki nie zakodowane tylko dla zarejestrowanych użytkowników!

Nie masz konta? Zarejestruj się za darmo!
----------------
Links are not encoded only for registered users only! Plese login or register!

Informacje

Jeżeli chcesz skomentować artykuł musisz być zarejestrowany na stronie.