EXSite.pl - Portal ze wszystkim Mamy tutaj wszystko

NIE MASZ JESZCZE KONTA? ZAREJESTRUJ SIĘ ZA DARMO!   
Przypomnij hasło X

Hotel Transylwania 3D (SBS) / Hotel Transylvania (2012) Dubbing PL 5.1.mini-HD.x264.1080p.Side.by.Side-HOOLIMAN

Dodał: HOOLIMAN 18 Luty 2013 14:31


Hotel Transylwania 3D (SBS) / Hotel Transylvania (2012) Dubbing PL 5.1.mini-HD.x264.1080p.Side.by.Side-HOOLIMAN

Hotel Transylwania 3D (SBS) / Hotel Transylvania (2012) Dubbing PL 5.1.mini-HD.x264.1080p.Side.by.Side-HOOLIMAN

Hotel Transylwania 3D (SBS) / Hotel Transylvania (2012) Dubbing PL 5.1.mini-HD.x264.1080p.Side.by.Side-HOOLIMAN
Film w wersji 3D Side-by-Side.
Do odtworzenia filmu WYMAGANY odpowiedni sprzęt (TV 3D).

Kopia mini-HD 1080p = tylko 3,56 GB


gatunek: Animacja Familijny Komedia
produkcja: USA
premiera: 9 listopada 2012 (Polska) 8 września 2012 (świat)

W Hotelu Transylvania potwory mogą odpocząć z daleka od ciekawskich ludzkich oczu. Gospodarzami hotelu są Hrabia Dracula oraz jego 118-letnia córka Mavis, zachowująca się dokładnie tak, jak inne nastolatki. Kiedy Mavis łamie świętą zasadę potworów polegającą na unikaniu kontaktów z ludźmi, wprowadza tym samym w ruch ła?cuch wydarze?, które zagrażają hotelowi Transylwania i egzystencji potworów.




Ogólne:

Format : Matroska (MKV)
Rozmiar pliku : 3,56 GB
Czas trwania : 1h 31 min.
Rodzaj całkowitej przepływności bitów : Zmienna
Całkowita przepływność bitów : 5.566 Kb/s

Wideo:

Format : AVC
Profil formatu : High@L5.1
Czas trwania : 1h 31 min.
Rodzaj przepływności : Zmienna
Przepływność bitów : 5.000 Kb/s
Szerokość : 1.920 pikseli
Wysokość : 1.080 pikseli
Proporcje obrazu : 16:9
Szybkość wyświetlania klatek : 23,976 kl/s
Rozmiar strumienia : 3,08 GB (87%)

Audio:

Format : AC-3
Czas trwania : 1h 31 min.
Rodzaj przepływności : Stała
Przepływność bitów : 640 Kb/s
Kanały : 6 kanałów
Rozmieszczenie kanałów : Front: L C R, Side: L R, LFE
Częstotliwość próbkowania : 48,0 KHz
BitDepth/String : 16 bitów
Rozmiar strumienia : 419 MB (11%)
Język : Polski

Dane Naprawcze: 5%

Przykładowa instrukcja jak odpalić film 3D SBS na TV Samsunga
Kopiujesz film na zewnętrzny dysk twardy lub pen-drive i podłączasz do gniazda USB w TV. Na telewizorze pojawią się dwie opcje do wyboru, jedna to aktualizacja oprogramowania a druga Media Play, wybierasz Media Play i otwiera się program samsunga do odtwarzania plików multimedialnych, wchodzisz w zakładkę "filmy" i tam będą wszystkie filmy które masz na Dysku lub Pendrive. Odpalasz film 3D Side-by-Side i na pilocie z telewizora wciskasz guzik 3D a następnie wybierasz tryb "obraz obok obrazu", pozostaje tylko założyć i włączyć okulary i cieszymy się świetnymi efektami 3D :)



Hotel Transylwania 3D (SBS) / Hotel Transylvania (2012) Dubbing PL 5.1.mini-HD.x264.1080p.Side.by.Side-HOOLIMAN
Uwaga! Linki nie zakodowane tylko dla zarejestrowanych użytkowników!

Nie masz konta? Zarejestruj się za darmo!
----------------
Links are not encoded only for registered users only! Plese login or register!




Zobacz inne moje newsy na EXSite.pl

Użytkownik VIP

MotyleczekUploader

#2 | Dodany: 18 Luty 2013 14:47

Hotel Transylwania 3D / Hotel Transylvania 3D (2012) PLDUB.1080p.HSBS.BluRay.X264-SLiSU / DUBBiNG PL





Video
ID : 1
Format : AVC
Format/Info : Advanced Video Codec
Format profile : High@L4.1
Format settings, CABAC : Yes
Format settings, ReFrames : 3 frames
Muxing mode : Header stripping
Codec ID : V_MPEG4/ISO/AVC
Duration : 1h 31mn
Bit rate : 10.0 Mbps
Width : 1 920 pixels
Height : 1 036 pixels
Display aspect ratio : 1.85:1
Frame rate mode : Constant
Frame rate : 23.976 fps
Color space : YUV
Chroma subsampling : 4:2:0
Bit depth : 8 bits
Scan type : Progressive
Bits/(Pixel*Frame) : 0.210
Stream size : 6.41 GiB (96%)
Writing library : x264 core
Default : Yes
Forced : No
Color primaries : BT.709
Transfer characteristics : BT.709
Matrix coefficients : BT.709

Audio
ID : 2
Format : AC-3
Format/Info : Audio Coding 3
Mode extension : CM (complete main)
Format settings, Endianness : Big
Muxing mode : Header stripping
Codec ID : A_AC3
Duration : 1h 31mn
Bit rate mode : Constant
Bit rate : 192 Kbps
Channel(s) : 2 channels
Channel positions : Front: L R
Sampling rate : 48.0 KHz
Bit depth : 16 bits
Compression mode : Lossy
Stream size : 126 MiB (2%)
Default : Yes
Forced : No



Uwaga! Linki nie zakodowane tylko dla zarejestrowanych użytkowników!

Nie masz konta? Zarejestruj się za darmo!
----------------
Links are not encoded only for registered users only! Plese login or register!





Hotel Transylwania 3D(OU) - Hotel Transylvania (2012) mini-HD.1080p.Over-Under.AC3.BluRay.x264-LEON 345| DUBBiNG PL



Uwaga! Linki nie zakodowane tylko dla zarejestrowanych użytkowników!

Nie masz konta? Zarejestruj się za darmo!
----------------
Links are not encoded only for registered users only! Plese login or register!

Użytkownik VIP

bestuploader1991Użytkownik

#3 | Dodany: 18 Luty 2013 16:58

Jest jakaś szansa na dodanie samego dźwięku 5.1 ? Nie sądziłem że ta wersja pojawi się tak szybko i dopiero co ściągnąłem 2.0 .
Użytkownik VIP

akukuUżytkownik

#4 | Dodany: 18 Luty 2013 18:54

Jeśli można to przyłączam się do prośby bestuploader1991 o samo audio 5.1
Dziękuję bardzo.
Użytkownik VIP

_eRroORr_Użytkownik

#5 | Dodany: 18 Luty 2013 20:49

ja również przyłączam się do prośby
Użytkownik VIP

lukasz_drygasUżytkownik

#6 | Dodany: 19 Luty 2013 19:19

czy można prosić o rapidgator??
Użytkownik VIP

Stan63Użytkownik

#7 | Dodany: 22 Luty 2013 18:59

ok 5 ok
Użytkownik VIP

Freedom35VIP

#8 | Dodany: 11 Marzec 2013 13:54

Epoka Lodowcowa 4: Wędrówka kontynentów / Ice Age: Continental Drift (2012) 3D (SBS)

mini-HD.1080p.x264.Side.by.Side-HOOLIMAN / Dubbing PL

Kopia mini-HD 1080p = tylko 3,27 GB



iNFO:



Party 900 MB / Można pobierać na przemian / Bez hasła
Uwaga! Linki nie zakodowane tylko dla zarejestrowanych użytkowników!

Nie masz konta? Zarejestruj się za darmo!
----------------
Links are not encoded only for registered users only! Plese login or register!

Informacje

Jeżeli chcesz skomentować artykuł musisz być zarejestrowany na stronie.