EXSite.pl - Portal ze wszystkim Mamy tutaj wszystko

NIE MASZ JESZCZE KONTA? ZAREJESTRUJ SIĘ ZA DARMO!   
Przypomnij hasło X

Hotel Transylwania 3D / Hotel Transylvania (2012) mini-HD.1080p.Over-Under.AC3.BluRay.x264-LEON 345| DUBBiNG PL

Dodał: Motyleczek 18 Luty 2013 15:32




Hotel Transylwania 3D(OU) - Hotel Transylvania (2012) mini-HD.1080p.Over-Under.AC3.BluRay.x264-LEON 345| DUBBiNG PL


Hotel Transylwania 3D /  Hotel Transylvania (2012) mini-HD.1080p.Over-Under.AC3.BluRay.x264-LEON 345| DUBBiNG PL

gatunek: Animacja, Familijny, Komedia
produkcja: USA
premiera: 9 listopada 2012 (Polska) 8 września 2012 (świat)
reżyseria: Genndy Tartakovsky
scenariusz: Peter Baynham, Robert Smigel

W Hotelu Transylvania potwory mogą odpocząć z daleka od ciekawskich ludzkich oczu. Gospodarzami hotelu są Hrabia Dracula oraz jego 118-letnia córka Mavis, zachowująca się dokładnie tak, jak inne nastolatki. Kiedy Mavis łamie świętą zasadę potworów polegającą na unikaniu kontaktów z ludźmi, wprowadza tym samym w ruch ła?cuch wydarze?, które zagrażają hotelowi Transylwania i egzystencji potworów.


Hotel Transylwania 3D(OU) - Hotel Transylvania (2012) mini-HD.1080p.Over-Under.AC3.BluRay.x264-LEON 345| DUBBiNG PL



Uwaga! Linki nie zakodowane tylko dla zarejestrowanych użytkowników!

Nie masz konta? Zarejestruj się za darmo!
----------------
Links are not encoded only for registered users only! Plese login or register!




Użytkownik VIP

MotyleczekUploader

#1 | Dodany: 18 Luty 2013 15:33


Hotel Transylwania 3D / Hotel Transylvania 3D (2012) PLDUB.1080p.HSBS.BluRay.X264-SLiSU / DUBBiNG PL





Video
ID : 1
Format : AVC
Format/Info : Advanced Video Codec
Format profile : High@L4.1
Format settings, CABAC : Yes
Format settings, ReFrames : 3 frames
Muxing mode : Header stripping
Codec ID : V_MPEG4/ISO/AVC
Duration : 1h 31mn
Bit rate : 10.0 Mbps
Width : 1 920 pixels
Height : 1 036 pixels
Display aspect ratio : 1.85:1
Frame rate mode : Constant
Frame rate : 23.976 fps
Color space : YUV
Chroma subsampling : 4:2:0
Bit depth : 8 bits
Scan type : Progressive
Bits/(Pixel*Frame) : 0.210
Stream size : 6.41 GiB (96%)
Writing library : x264 core
Default : Yes
Forced : No
Color primaries : BT.709
Transfer characteristics : BT.709
Matrix coefficients : BT.709

Audio
ID : 2
Format : AC-3
Format/Info : Audio Coding 3
Mode extension : CM (complete main)
Format settings, Endianness : Big
Muxing mode : Header stripping
Codec ID : A_AC3
Duration : 1h 31mn
Bit rate mode : Constant
Bit rate : 192 Kbps
Channel(s) : 2 channels
Channel positions : Front: L R
Sampling rate : 48.0 KHz
Bit depth : 16 bits
Compression mode : Lossy
Stream size : 126 MiB (2%)
Default : Yes
Forced : No



Uwaga! Linki nie zakodowane tylko dla zarejestrowanych użytkowników!

Nie masz konta? Zarejestruj się za darmo!
----------------
Links are not encoded only for registered users only! Plese login or register!

Użytkownik VIP

TajniUżytkownik

#2 | Dodany: 18 Luty 2013 16:49

thx
Użytkownik VIP

tanoy81Użytkownik

#3 | Dodany: 21 Luty 2013 00:35

brawo
Użytkownik VIP

dawcior-alUżytkownik

#4 | Dodany: 23 Luty 2013 09:20

RAPIDGATOR PLZ!!!
Użytkownik VIP

Freedom35VIP

#5 | Dodany: 11 Marzec 2013 13:55

Epoka Lodowcowa 4: Wędrówka kontynentów / Ice Age: Continental Drift (2012) 3D (SBS)

mini-HD.1080p.x264.Side.by.Side-HOOLIMAN / Dubbing PL

Kopia mini-HD 1080p = tylko 3,27 GB



iNFO:



Party 900 MB / Można pobierać na przemian / Bez hasła
Uwaga! Linki nie zakodowane tylko dla zarejestrowanych użytkowników!

Nie masz konta? Zarejestruj się za darmo!
----------------
Links are not encoded only for registered users only! Plese login or register!

Informacje

Jeżeli chcesz skomentować artykuł musisz być zarejestrowany na stronie.