EXSite.pl - Portal ze wszystkim Mamy tutaj wszystko

NIE MASZ JESZCZE KONTA? ZAREJESTRUJ SIĘ ZA DARMO!   
Przypomnij hasło X

Życie Pi 3D / Life Of Pi 3D (2012) 1080p.BluRay.Half-SBS.DTS.x264-Public3D

Dodał: Motyleczek 2 Marzec 2013 16:10




Życie Pi 3D / Life Of Pi 3D (2012) 1080p.BluRay.Half-SBS.DTS.x264-Public3D


Życie Pi 3D / Life Of Pi 3D (2012) 1080p.BluRay.Half-SBS.DTS.x264-Public3D

gatunek: Dramat, Przygodowy
produkcja: USA
premiera: 11 stycznia 2013 (Polska) 28 września 2012 (świat)
reżyseria: Ang Lee
scenariusz: David Magee

Ekranizacja bestsellerowej powieści Yanna Martela. Pi Patel, syn właściciela zoo, mieszka wraz z rodziną w Indiach. Wkrótce życie postawi przed nim wyzwanie, które będzie wymagało od niego niezwykłej determinacji. Rodzina Pi postanawia przenieść się do Kanady. W trakcie podróży statek ulega uszkodzeniu i tonie. Pi znajduje się w niewielkiej szalupie na środku Oceanu Spokojnego w towarzystwie hieny, orangutana, zebry i tygrysa bengalskiego o imieniu Richard Parker. Rozpoczyna się walka o przetrwanie.

Życie Pi 3D / Life Of Pi 3D (2012) 1080p.BluRay.Half-SBS.DTS.x264-Public3D

Życie Pi 3D / Life Of Pi 3D (2012) 1080p.BluRay.Half-SBS.DTS.x264-Public3D

Życie Pi 3D / Life Of Pi 3D (2012) 1080p.BluRay.Half-SBS.DTS.x264-Public3D

Życie Pi 3D / Life Of Pi 3D (2012) 1080p.BluRay.Half-SBS.DTS.x264-Public3D

Życie Pi 3D / Life Of Pi 3D (2012) 1080p.BluRay.Half-SBS.DTS.x264-Public3D

Życie Pi 3D / Life Of Pi 3D (2012) 1080p.BluRay.Half-SBS.DTS.x264-Public3D


Date .........: March 01 2013
Runtime ......: 2:06:51
Size .........: 13.6 GB
Video ........: 1920x1080
3D Type.......: Half Side By Side 3D Encode (Right Eye First)
Bitrate ......: ~13600 kbps (x264/CBR/ L4.1)
Audio 1.......: English DTS-ES 5.1 Ch 1510 kbps
Chapters......: Yes
Source .......: 1080p Blu-ray 3D AVC DTS-HD MA 7.1
Subs .........: English French Spanish German

Screens.......: $22,451,514 (USA) (23 November 2012) (2,927 Screens)
Genre ........: Adventure | Drama


Uwaga! Linki nie zakodowane tylko dla zarejestrowanych użytkowników!

Nie masz konta? Zarejestruj się za darmo!
----------------
Links are not encoded only for registered users only! Plese login or register!




Użytkownik VIP

GHunter Użytkownik

#1 | Dodany: 2 Marzec 2013 16:10

;-)
Użytkownik VIP

MotyleczekUploader

#2 | Dodany: 2 Marzec 2013 16:10

reupload



Życie Pi 3D / Life Of Pi 3D (2012) PLDUB.BluRay.HSBS.1080p.AC3.x264-SLiSU / Dubbing PL


Uwaga! Linki nie zakodowane tylko dla zarejestrowanych użytkowników!

Nie masz konta? Zarejestruj się za darmo!
----------------
Links are not encoded only for registered users only! Plese login or register!


Użytkownik VIP

TajniUżytkownik

#3 | Dodany: 2 Marzec 2013 18:39

3D + Dubbing PL thx
Dzięki Motylek ;)
ok
Użytkownik VIP

napoleon13Użytkownik

#4 | Dodany: 2 Marzec 2013 18:49

Można prosić o Turbobit?
Użytkownik VIP

crazy catUżytkownik

#5 | Dodany: 2 Marzec 2013 20:02

mozna prosic hellshare?
Użytkownik VIP

MotyleczekUploader

#6 | Dodany: 2 Marzec 2013 20:11

crazy cat, Hellshare juz nie ma recourse
Użytkownik VIP

_eRroORr_Użytkownik

#7 | Dodany: 2 Marzec 2013 20:25

motyleczek
brak parta 11 na egofiles
o już jest
Podziękował ślicznie ...
Użytkownik VIP

MotyleczekUploader

#8 | Dodany: 2 Marzec 2013 20:51

_eRroORr_, już jest ,przepraszam winked
Użytkownik VIP

tenkingpinUżytkownik

#9 | Dodany: 2 Marzec 2013 22:48

turbo plizzzz
Użytkownik VIP

bednarusUżytkownik

#10 | Dodany: 3 Marzec 2013 11:35

Uwaga! Linki nie zakodowane tylko dla zarejestrowanych użytkowników!

Nie masz konta? Zarejestruj się za darmo!
----------------
Links are not encoded only for registered users only! Plese login or register!
Życie Pi 3D / Life Of Pi 3D (2012) PLDUB.BluRay.HSBS.1080p.AC3.x264-SLiSU / Dubbing PL


Format : Matroska
Format version : Version 2
File size : 11.3 GiB
Duration : 2h 6mn
Overall bit rate : 12.7 Mbps
Movie name : LIFE_OF_PI.Title600.Bluray3DRip
Encoded date : UTC 2013-03-01 18:49:04
Writing application : mkvmerge v5.0.1 ('Es ist Sommer') built on Oct 13 2011 06:24:21
Writing library : libebml v1.2.2 + libmatroska v1.3.0

Video
ID : 1
Format : AVC
Format/Info : Advanced Video Codec
Format profile : High@L4.1
Format settings, CABAC : Yes
Format settings, ReFrames : 3 frames
Muxing mode : Header stripping
Codec ID : V_MPEG4/ISO/AVC
Duration : 2h 6mn
Bit rate : 12.0 Mbps
Width : 1 920 pixels
Height : 1 036 pixels
Display aspect ratio : 1.85:1
Frame rate mode : Constant
Frame rate : 23.976 fps
Color space : YUV
Chroma subsampling : 4:2:0
Bit depth : 8 bits
Scan type : Progressive
Bits/(Pixel*Frame) : 0.252
Stream size : 10.7 GiB (94%)
Writing library : x264 core
Default : Yes
Forced : No
Color primaries : BT.709
Transfer characteristics : BT.709
Matrix coefficients : BT.709

Audio
ID : 2
Format : AC-3
Format/Info : Audio Coding 3
Mode extension : CM (complete main)
Format settings, Endianness : Big
Muxing mode : Header stripping
Codec ID : A_AC3
Duration : 2h 6mn
Bit rate mode : Constant
Bit rate : 448 Kbps
Channel(s) : 6 channels
Channel positions : Front: L C R, Side: L R, LFE
Sampling rate : 48.0 KHz
Bit depth : 16 bits
Compression mode : Lossy
Stream size : 407 MiB (4%)
Language : Polish
Default : Yes
Forced : No

http://tb7.pl/pobierz/4d4e6aa98a10e381c5ba5a374d7c8843/dziewczynka.m.SLiSU.part01.rar
http://tb7.pl/pobierz/71dfd1e20f3abbe2a9f3b1c22faa1759/dziewczynka.m.SLiSU.part10.rar
http://tb7.pl/pobierz/e1de6e049cf3d8461b382ed6d6323b39/dziewczynka.m.SLiSU.part11.rar
http://tb7.pl/pobierz/376b5d47ef0a63c164098fae49d573dc/dziewczynka.m.SLiSU.part12.rar
http://tb7.pl/pobierz/32fe9e1b3ca8718652ca4cdbb8867cfc/dziewczynka.m.SLiSU.part08.rar
http://tb7.pl/pobierz/675f0918c18253a37bb36399e7dc18ca/dziewczynka.m.SLiSU.part03.rar
http://tb7.pl/pobierz/a9b725af2601c5122911cba9d69818c8/dziewczynka.m.SLiSU.part07.rar
http://tb7.pl/pobierz/a25be8dcc3f5dd229c2eaf60a2afaf3b/dziewczynka.m.SLiSU.part02.rar
http://tb7.pl/pobierz/3efb644665c3d1bead5627854ce28d35/dziewczynka.m.SLiSU.part05.rar
http://tb7.pl/pobierz/8383251764b227d5f88757ddbe9ea31e/dziewczynka.m.SLiSU.part04.rar
http://tb7.pl/pobierz/9d4d0ca6747ca4bf63bfa692ba0aac13/dziewczynka.m.SLiSU.part09.rar
http://tb7.pl/pobierz/80408999ed50ef4e77a2f9e896932eb4/dziewczynka.m.SLiSU.part06.rar


wygenerowany powtórnie

http://tb7.pl/pobierz/a9eb21a1505d4ab96a2b7faf9937908d/dziewczynka.m.SLiSU.part12.rar
Użytkownik VIP

baranyk78Użytkownik

#11 | Dodany: 3 Marzec 2013 11:52

a mozna prosić wersję mini HD :)))
Użytkownik VIP

trzyczasowyUżytkownik

#12 | Dodany: 3 Marzec 2013 13:32

dubbing kinowy czy profesjonalny ?
Użytkownik VIP

pasiek78Użytkownik

#13 | Dodany: 3 Marzec 2013 13:39

dołączam się do prośby baranyk78 :)
Użytkownik VIP

marlenak997Użytkownik

#14 | Dodany: 3 Marzec 2013 16:50

Nie chce wypakować. Przy 10 parcie pokazuje nie znaleziono archiwum. ściągałem kilkakrotnie i za każdym razem to samo. Ma ktoś podobnie?

Informacje

Jeżeli chcesz skomentować artykuł musisz być zarejestrowany na stronie.