EXSite.pl - Portal ze wszystkim Mamy tutaj wszystko

NIE MASZ JESZCZE KONTA? ZAREJESTRUJ SIĘ ZA DARMO!   
Przypomnij hasło X

Chinese Zodiac (2012) 720p.WEBRip.x264.AC3-JYK

Dodał: Marrakech 11 Luty 2013 11:03


Chinese Zodiac (2012) 720p.WEBRip.x264.AC3-JYK


Chinese Zodiac (2012) 720p.WEBRip.x264.AC3-JYK

gatunek: Akcja
produkcja: Chiny, Hongkong
premiera: 12 grudnia 2012 (świat)
reżyseria: Jackie Chan
scenariusz: Jackie Chan

Asian Hawk, podróżuje po świcie w poszukiwaniu zestawu mistycznych artefaktów - 12 głów zwierząt z chi?skiego zodiaku wykonanych z brązu.

DANE TECHNiCZNE / RELEASE .NFO

Format : Matroska
File size : 1.93 GiB
Duration : 1h 55mn
Overall bit rate : 2 384 Kbps

~~Video~~
Format : AVC
Format profile : High@L4.1
Codec ID : V_MPEG4/ISO/AVC
Duration : 1h 55mn
Bit rate : 2 190 Kbps
Width : 1 280 pixels
Height : 528 pixels
Display aspect ratio : 2.40:1
Frame rate : 25.000 fps
Bit depth : 8 bits
Scan type : Progressive
Stream size : 1.74 GiB (90%)

~~Audio~~
Format : AC-3
Mode extension : CM (complete main)
Codec ID : A_AC3
Duration : 1h 55mn
Bit rate mode : Constant
Bit rate : 192 Kbps
Channel(s) : 2 channels
Channel positions : Front: L R
Sampling rate : 48.0 KHz
Bit depth : 16 bits
Compression mode : Lossy
Stream size : 159 MiB (8%)

Waga: 1.93gb
Zawartość Uploadu: Plik .mkv
Wersja Językowa: English
Dane Naprawcze: 2%
Hasło: Brak


DOWNLOAD LiNKS - 1PART=900MB:
Bez hasła || 2% danych naprawczych || Można pobierać na przemian
Uwaga! Linki nie zakodowane tylko dla zarejestrowanych użytkowników!

Nie masz konta? Zarejestruj się za darmo!
----------------
Links are not encoded only for registered users only! Plese login or register!



Użytkownik VIP

MarrakechVIP

#1 | Dodany: 11 Luty 2013 11:03

brawo
Użytkownik VIP

tom2044Użytkownik

#2 | Dodany: 11 Luty 2013 15:42

Jakieś napisy, nawet angielskie sad
Użytkownik VIP

pyslawomirUżytkownik

#3 | Dodany: 12 Luty 2013 13:03

Ja także poproszę o napisy
Użytkownik VIP

ikiikiUżytkownik

#4 | Dodany: 17 Luty 2013 10:41

http://www.sub-titles.net/pl/ppodnapisi/podnapis/i/2206765/chinese-zodiac-2012

Informacje

Jeżeli chcesz skomentować artykuł musisz być zarejestrowany na stronie.