EXSite.pl - Portal ze wszystkim Mamy tutaj wszystko

NIE MASZ JESZCZE KONTA? ZAREJESTRUJ SIĘ ZA DARMO!   
Przypomnij hasło X

ABCD - AnyBody Can Dance (2013) DVDRip.x264.AC3-LLO / Napisy PL

Dodał: LILILILO 9 Maj 2013 19:49


ABCD - AnyBody Can Dance (2013) DVDRip.x264.AC3-LLO / Napisy PL


Banner: Utv Motion Pictures
Gatunek: taneczny
Jezyk: hindi

Dla Vishnu (Prabhudheva) taniec to coś więcej niż pasja - to powód, dla którego żyje. Gdy wiec partner w interesach usuwa go ze stanowiska choreografa i daje mu pracę w administracji, to Vishnu odchodzi ze szkoły ta?ca. Zdenerwowany postanawia na zawsze porzucić taniec i Bombaj.

Dzie? przed wyjazdem z miasta spotyka tancerzy na corocznym festiwalu Ganpati. Widząc ukryty talent młodych tancerzy Vishnu podejmuje decyzje aby pomoc im nauczyć się ta?czyć i osiągnąć zwycięstwo w programie tanecznym.


Source: DVD9 NTSC

ABCD - AnyBody Can Dance (2013) DVDRip.x264.AC3-LLO / Napisy PL ABCD - AnyBody Can Dance (2013) DVDRip.x264.AC3-LLO / Napisy PL


Uwaga! Linki nie zakodowane tylko dla zarejestrowanych użytkowników!

Nie masz konta? Zarejestruj się za darmo!
----------------
Links are not encoded only for registered users only! Plese login or register!



ABCD - AnyBody Can Dance (2013) DVDRip.x264.AC3-LLO / Napisy PL

ABCD - AnyBody Can Dance (2013) DVDRip.x264.AC3-LLO / Napisy PL

Użytkownik VIP

LILILILO VIP Uploader

#1 | Dodany: 9 Maj 2013 19:49

ok

hindi dżekson
Użytkownik VIP

bodzioncovUżytkownik

#2 | Dodany: 10 Maj 2013 04:38

ABCD - AnyBody Can Dance (2013) DVDRip.x264.AC3-LLO / Napisy PL


Info:

Format : Matroska
Format version : Version 2
File size : 1.89 GiB
Duration : 2h 23mn
Overall bit rate : 1 889 Kbps
Writing application : HandBrake rev4860
Writing library : libmkv 0.6.5

Video
ID : 1
Format : AVC
Format/Info : Advanced Video Codec
Format profile : High@L4.1
Format settings, CABAC : Yes
Format settings, ReFrames : 4 frames
Codec ID : V_MPEG4/ISO/AVC
Duration : 2h 23mn
Bit rate : 1 500 Kbps
Width : 720 pixels
Height : 304 pixels
Display aspect ratio : 2.35:1
Frame rate mode : Constant
Frame rate : 23.976 fps
Color space : YUV
Chroma subsampling : 4:2:0
Bit depth : 8 bits
Scan type : Progressive
Bits/(Pixel*Frame) : 0.286
Stream size : 1.47 GiB (78%)
Writing library : x264 core 120
Encoding settings : cabac=1 / ref=3 / deblock=1:0:0 / analyse=0x3:0x113 / me=hex / subme=7 / psy=1 / psy_rd=1,00:0,00 / mixed_ref=1 / me_range=16 / chroma_me=1 / trellis=1 / 8x8dct=1 / cqm=0 / deadzone=21,11 / fast_pskip=1 / chroma_qp_offset=-2 / threads=12 / sliced_threads=0 / nr=0 / decimate=1 / interlaced=0 / bluray_compat=0 / constrained_intra=0 / bframes=3 / b_pyramid=2 / b_adapt=2 / b_bias=0 / direct=1 / weightb=1 / open_gop=0 / weightp=2 / keyint=240 / keyint_min=24 / scenecut=40 / intra_refresh=0 / rc_lookahead=50 / rc=2pass / mbtree=1 / bitrate=1500 / ratetol=1,0 / qcomp=0,60 / qpmin=3 / qpmax=69 / qpstep=4 / cplxblur=20,0 / qblur=0,5 / ip_ratio=1,40 / aq=1:1,00
Language : English
Default : Yes
Forced : No
Color primaries : BT.601 NTSC
Transfer characteristics : BT.709
Matrix coefficients : BT.601

Audio
ID : 2
Format : AC-3
Format/Info : Audio Coding 3
Mode extension : CM (complete main)
Format settings, Endianness : Big
Codec ID : A_AC3
Duration : 2h 23mn
Bit rate mode : Constant
Bit rate : 384 Kbps
Channel(s) : 6 channels
Channel positions : Front: L C R, Side: L R, LFE
Sampling rate : 48.0 KHz
Bit depth : 16 bits
Compression mode : Lossy
Stream size : 394 MiB (20%)
Default : Yes
Forced : No



..:: DOWNLOAD (PARTY MOŻNA POBIERAĆ NA PRZEMIAN) ::..


CatShare:
http://catshare.net/E58oobF3q5SpZGku/ABCD2013-bodzioncov15.part1.rar
http://catshare.net/psSGGtWTptrzaykK/ABCD2013-bodzioncov15.part2.rar
http://catshare.net/BTXoi1ruiX7G7ZGJ/ABCD2013-bodzioncov15.part3.rar


TurboBit:
http://turbobit.net/dm2kezdtf7sc/ABCD2013-bodzioncov15.part1.rar.html
http://turbobit.net/exwqdzhcnuhv/ABCD2013-bodzioncov15.part2.rar.html
http://turbobit.net/3uqqeivh8qtx/ABCD2013-bodzioncov15.part3.rar.html


UploadedTo:
http://uploaded.net/file/up2bomlb/ABCD2013-bodzioncov15.part1.rar
http://uploaded.net/file/r8ch0kp4/ABCD2013-bodzioncov15.part2.rar
http://uploaded.net/file/nqggb03y/ABCD2013-bodzioncov15.part3.rar


CloudZer:
http://cloudzer.net/file/lk9gggqc/ABCD2013-bodzioncov15.part1.rar
http://cloudzer.net/file/thgegh92/ABCD2013-bodzioncov15.part2.rar
http://cloudzer.net/file/ikftf0zc/ABCD2013-bodzioncov15.part3.rar


EgoFiles:
http://egofiles.com/mX3wjLGK5KTH22li/ABCD2013-bodzioncov15.part1.rar
http://egofiles.com/fLA0AGAEAMibhPeR/ABCD2013-bodzioncov15.part2.rar
http://egofiles.com/RT3yLm4sFN1stb9F/ABCD2013-bodzioncov15.part3.rar
Użytkownik VIP

zigezUżytkownik

#3 | Dodany: 20 Styczeń 2016 15:22

ABCD / AnyBody Can Dance(2013) 720p.BluRay.x264.DTS-DDR Napisy PL

General


Napisy PL Wmuxowane i osobno (SSA/SRT)
Source V/ A : BD
Kompresja RAR + 10% Danych Naprawczych
Brak Hasła
Plki po 2Gb
Rapidu :


Uwaga! Linki nie zakodowane tylko dla zarejestrowanych użytkowników!

Nie masz konta? Zarejestruj się za darmo!
----------------
Links are not encoded only for registered users only! Plese login or register!


ABCD / AnyBody Can Dance 2 (2013) 1080p.BluRay.x264.DTS-HDMA.DTS-DX Napisy PL

General


Napisy PL Wmuxowane i osobno (SSA/SRT)
Source V/ A : BD
Kompresja RAR + 10% Danych Naprawczych
Brak Hasła
Plki po 2Gb
Rapidu :


Uwaga! Linki nie zakodowane tylko dla zarejestrowanych użytkowników!

Nie masz konta? Zarejestruj się za darmo!
----------------
Links are not encoded only for registered users only! Plese login or register!

Linki na PW

Gwiezdne wojny - Star Wars (1977-2015) 1080p 3D HOU
Step Up (2006-2014) 1080p 3D HOU
Obcy - Alien Anthology (1979-1997) MULTi 1080p 60FPS

Informacje

Jeżeli chcesz skomentować artykuł musisz być zarejestrowany na stronie.