EXSite.pl - Portal ze wszystkim Mamy tutaj wszystko

NIE MASZ JESZCZE KONTA? ZAREJESTRUJ SIĘ ZA DARMO!   
Przypomnij hasło X

Korporacyjna żywność / Food, Inc. (2008) PL.720p.Blu-Ray.DD.x264-HDBT / POLSKI LEKTOR

Dodał: CrashRed 12 Listopad 2011 14:42


Korporacyjna żywność / Food, Inc. (2008) PL.720p.Blu-Ray.DD.x264-HDBT / POLSKI LEKTOR

Korporacyjna żywność / Food, Inc. (2008)  PL.720p.Blu-Ray.DD.x264-HDBT / POLSKI LEKTOR

Korporacyjna żywność / Food, Inc. (2008)  PL.720p.Blu-Ray.DD.x264-HDBT / POLSKI LEKTOR
http://www.filmweb.pl/film/Korporacyjna+%C5%BCywno%C5%9B%C4%87-2008-506412

czas trwania: 1 godz. 34 min.
gatunek: Dokumentalny
premiera: 7 września 2008 (świat) 2008-09-07
reżyseria: Robert Kenner

Dzisiejsze metody produkcji są odpowiedzią na wielkość produkcji fast foodów, która obejmuje coraz szerszy zasięg od lat 50tych. Zysk zaczął liczyć się dużo bardziej od zdrowia konsumentów i pracujących przy taśmach ludzi w wytwórniach oraz humanitarnych sposobów zabijania zwierząt. Dokumentalny film 'Food, inc' bez ogródek ukazuje przekle?stwo dzisiejszego świata, w którym konsumpcja włada światem i nic poza nią nie ma znaczenia.


Korporacyjna żywność / Food, Inc. (2008)  PL.720p.Blu-Ray.DD.x264-HDBT / POLSKI LEKTOR
Korporacyjna żywność / Food, Inc. (2008)  PL.720p.Blu-Ray.DD.x264-HDBT / POLSKI LEKTOR

Format : Matroska
File size : 4.22 GiB
Duration : 1h 33mn
Overall bit rate : 6 449 Kbps
Video
ID : 1
Format : AVC
Format/Info : Advanced Video Codec
Format profile : High@L4.1
Duration : 1h 33mn
Bit rate : 5 168 Kbps
Width : 1 280 pixels
Height : 720 pixels
Display aspect ratio : 16:9
Frame rate : 23.976 fps
Stream size : 3.30 GiB (78%)
Writing library : x264 core 78 r1301M bcba15d
Language : English
Audio #1
ID : 2
Format : AC-3
Duration : 1h 33mn
Bit rate mode : Constant
Bit rate : 640 Kbps
Channel(s) : 6 channels
Stream size : 429 MiB (10%)
Title : AC3 5.1 @ 640 Kbps
Language : Polish

Audio #2
ID : 3
Format : AC-3
Duration : 1h 33mn
Bit rate mode : Constant
Bit rate : 640 Kbps
Channel(s) : 6 channels
Stream size : 429 MiB (10%)
Title : AC3 5.1 @ 640 Kbps
Language : English



Korporacyjna żywność / Food, Inc. (2008)  PL.720p.Blu-Ray.DD.x264-HDBT / POLSKI LEKTOR
Uwaga! Linki nie zakodowane tylko dla zarejestrowanych użytkowników!

Nie masz konta? Zarejestruj się za darmo!
----------------
Links are not encoded only for registered users only! Plese login or register!



Użytkownik VIP

CrashRedVIP

#1 | Dodany: 12 Listopad 2011 14:42

ok

Informacje

Jeżeli chcesz skomentować artykuł musisz być zarejestrowany na stronie.