EXSite.pl - Portal ze wszystkim Mamy tutaj wszystko

NIE MASZ JESZCZE KONTA? ZAREJESTRUJ SIĘ ZA DARMO!   
Przypomnij hasło X

Azores: The World Under Water 3D (OU) part 1 (2011) mini-HD.1080p.Over-Under.AC3.x264-LEON 345 / ENGLISH

Dodał: first_person 6 Lipiec 2012 00:04


Azores: The World Under Water 3D (OU) part 1 (2011) mini-HD.1080p.Over-Under.AC3.x264-LEON 345 / ENGLISH

Azores: The World Under Water 3D (OU) part 1 (2011) mini-HD.1080p.Over-Under.AC3.x264-LEON 345 / ENGLISH

gatunek: dokumentalny
premiera: 2011

Film dokumentalny o życiu na Azorach. Składa się z trzech części, które opowiadają o życiu podwodnym, odkryciach, wulkanach i mieszka?cach archipelagu.

Część 1 : Azores. Sharks, Whales, Manta Rays
(Azory.Rekiny,Wieloryby ,Diabły morskie)

General

Format : Matroska
File size : 3.87 GiB
Duration : 52mn 26s
Overall bit rate : 10.6 Mbps
Writing application : Lavf51.12.1
Writing library : Lavf51.12.1

Video
ID : 1
Format : AVC
Format/Info : Advanced Video Codec
Format profile : Baseline@L4.0
Format settings, CABAC : No
Format settings, ReFrames : 1 frame
Muxing mode : Container profile=Unknown@4.0
Codec ID : V_MPEG4/ISO/AVC
Duration : 52mn 23s
Bit rate : 9 712 Kbps
Width : 1 920 pixels
Height : 1 080 pixels
Display aspect ratio : 16:9
Frame rate mode : Variable
Frame rate : 23.976 fps
Resolution : 8 bits
Colorimetry : 4:2:0
Scan type : Progressive
Bits/(Pixel*Frame) : 0.195
Stream size : 3.55 GiB (92%)

Audio
ID : 2
Format : AC-3
Format/Info : Audio Coding 3
Codec ID : A_AC3
Duration : 52mn 26s
Bit rate mode : Constant
Bit rate : 640 Kbps
Channel(s) : 6 channels
Channel positions : Front: L C R, Side: L R, LFE
Sampling rate : 48.0 KHz
Stream size : 240 MiB (6%)
Language : English


Info uploadu:
Rozmiar: 3.87 GB
Kompresja: Rar
Dane naprawcze: BRAK



DOWNLOAD | PARTY PO 1 GB | MOŻNA POBIERAĆ NA PRZEMIAN
Uwaga! Linki nie zakodowane tylko dla zarejestrowanych użytkowników!

Nie masz konta? Zarejestruj się za darmo!
----------------
Links are not encoded only for registered users only! Plese login or register!


DOWNLOAD | W JEDNYM PLIKU
Uwaga! Linki nie zakodowane tylko dla zarejestrowanych użytkowników!

Nie masz konta? Zarejestruj się za darmo!
----------------
Links are not encoded only for registered users only! Plese login or register!


HASLO | PASSWORD
Uwaga! Linki nie zakodowane tylko dla zarejestrowanych użytkowników!

Nie masz konta? Zarejestruj się za darmo!
----------------
Links are not encoded only for registered users only! Plese login or register!


Zobacz moje inne newsy na Exsite.pl

Użytkownik VIP

first_personVIP Uploader

#1 | Dodany: 6 Lipiec 2012 00:04

Polecam. Swietny film, w bardzo dobrej jakości -:)
Podziękowania dla LEON 345 "za dobrą robotę".

Jak najwięcej filmów dokumentalnych.
-----------
ENJOY !

Informacje

Jeżeli chcesz skomentować artykuł musisz być zarejestrowany na stronie.