EXSite.pl - Portal ze wszystkim Mamy tutaj wszystko

NIE MASZ JESZCZE KONTA? ZAREJESTRUJ SIĘ ZA DARMO!   
Przypomnij hasło X

Azores: The World Under Water 3D (OU) part 3 (2011) mini-HD.1080p.Over-Under.AC3.x264-LEON 345 / ENGLISH

Dodał: first_person 8 Lipiec 2012 05:07


Azores: The World Under Water 3D (OU) part 3 (2011) mini-HD.1080p.Over-Under.AC3.x264-LEON 345 / ENGLISH

Azores: The World Under Water 3D (OU) part 3 (2011) mini-HD.1080p.Over-Under.AC3.x264-LEON 345 / ENGLISH

gatunek: dokumentalny
premiera: 2011

Film dokumentalny o życiu na Azorach. Składa się z trzech części, które opowiadają o życiu podwodnym, odkryciach, wulkanach i mieszka?cach archipelagu.

Część 3: Azores. People, Fauna, Lifestyle
(Azory.Ludzie,fauna i styl życia)

General

Format : Matroska
File size : 3.88 GiB
Duration : 55mn 19s
Overall bit rate : 10.0 Mbps
Writing application : Lavf51.12.1
Writing library : Lavf51.12.1

Video
ID : 1
Format : AVC
Format/Info : Advanced Video Codec
Format profile : Baseline@L4.0
Format settings, CABAC : No
Format settings, ReFrames : 1 frame
Muxing mode : Container profile=Unknown@4.0
Codec ID : V_MPEG4/ISO/AVC
Duration : 55mn 16s
Bit rate : 9 203 Kbps
Width : 1 920 pixels
Height : 1 080 pixels
Display aspect ratio : 16:9
Frame rate mode : Variable
Frame rate : 23.976 fps
Resolution : 8 bits
Colorimetry : 4:2:0
Scan type : Progressive
Bits/(Pixel*Frame) : 0.185
Stream size : 3.55 GiB (92%)

Audio
ID : 2
Format : AC-3
Format/Info : Audio Coding 3
Codec ID : A_AC3
Duration : 55mn 19s
Bit rate mode : Constant
Bit rate : 640 Kbps
Channel(s) : 6 channels
Channel positions : Front: L C R, Side: L R, LFE
Sampling rate : 48.0 KHz
Stream size : 253 MiB (6%)
Language : English


Info uploadu:
Rozmiar: 3.88 GB
Kompresja: Rar
Dane naprawcze: BRAK



DOWNLOAD | PARTY PO 1 GB | MOŻNA POBIERAĆ NA PRZEMIAN
Uwaga! Linki nie zakodowane tylko dla zarejestrowanych użytkowników!

Nie masz konta? Zarejestruj się za darmo!
----------------
Links are not encoded only for registered users only! Plese login or register!


DOWNLOAD | W JEDNYM PLIKU
Uwaga! Linki nie zakodowane tylko dla zarejestrowanych użytkowników!

Nie masz konta? Zarejestruj się za darmo!
----------------
Links are not encoded only for registered users only! Plese login or register!


HASLO | PASSWORD
Uwaga! Linki nie zakodowane tylko dla zarejestrowanych użytkowników!

Nie masz konta? Zarejestruj się za darmo!
----------------
Links are not encoded only for registered users only! Plese login or register!


Zobacz moje inne newsy na Exsite.pl

Użytkownik VIP

GAMER2012Użytkownik

#2 | Dodany: 8 Lipiec 2012 07:34

wink
Użytkownik VIP

olchowoUżytkownik

#3 | Dodany: 8 Lipiec 2012 12:14

thx

Informacje

Jeżeli chcesz skomentować artykuł musisz być zarejestrowany na stronie.