EXSite.pl - Portal ze wszystkim Mamy tutaj wszystko

NIE MASZ JESZCZE KONTA? ZAREJESTRUJ SIĘ ZA DARMO!   
Przypomnij hasło X

Wojna światów / War of the Worlds (2005) PL.DVDRiP.XViD-faldino + rmvb |Lektor PL

Dodał: faldino12 16 Listopad 2011 22:11


Wojna światów / War of the Worlds (2005) PL.DVDRiP.XViD-faldino |Lektor PL

Wojna światów / War of the Worlds (2005) PL.DVDRiP.XViD-faldino + rmvb |Lektor PL

USA, 2005
Science-Fiction

Opis:
Gdy Ray Ferrier ko?czył pewnego razu pracę w porcie, to nawet nie przypuszczał, że już następnego dnia nic nie będzie takie samo. Po przyjściu z pracy zastaje pod domem dwójkę swoich dzieci, wraz z byłą żoną i jej nowym mężem. Okazuje się, że Ray będzie się musiał zaopiekować dzieciakami przez kilka dni. W tym samym czasie na całym świecie dzieją się dziwne rzeczy - są burze, wielkie wyładowania elektryczne i brakuje prądu. Ojczyznę Ray'a dotyka to samo - z rana na niebie pojawiają się straszne chmury, które według wszystkich zwiastują silną burzę. Jednak jest to bardzo dziwna burza - zupełnie bez grzmotów, a jednie z wieloma uderzeniami pioruna, nawet kilkakrotnie w jedno miejsce! Koło kościoła, na skrzyżowaniu, pioruny te zrobiły dużą dziurę w ziemi - do czego natychmiast zlatują się gapie. Nagle wszyscy zaczynają odczuwać dziwne drżenia ziemi dokładnie w tym miejscu. Po chwili ze środka wyłania się straszliwa machina, która w krótkim czasie zaczyna burzyć całe miasto i zabijać wszystkich napotkanych po drodze ludzi. W ten sposób zaczyna się straszliwa masakra


Dane Techniczne:
Format: AVI 1140 Kb/s
Rozmiar: 911 MB 1h 51min. 46s 208ms
Video: MPEG-4 Visual 999 Kb/s
Rozdzielczość: 640 x 360 (1.778) 25.000 fps
Audio: MPEG Audio 128 Kb/s
Kanały: 2 kanały, 44.1 KHz


Opis Uploadu:
* Rozmiar - 0,9gb
* Archiwum - bez hasła
* Zawartość - plik .avi
* Rodzaj kompresji - .rar
* Wersja językowa - PL
* Dane naprawcze - 10%

Uwaga! Linki nie zakodowane tylko dla zarejestrowanych użytkowników!

Nie masz konta? Zarejestruj się za darmo!
----------------
Links are not encoded only for registered users only! Plese login or register!


"rmvb:

Dane Techniczne:
Format: RealMedia 654 Kb/s
Rozmiar: 532 MB 1h 51min. 47s 779ms
Video: RealVideo 4 557 Kb/s
Rozdzielczość: 640 x 360 (1.778) 25 fps
Audio: Cooker 96.5 Kb/s
Kanały: 2 kanały, 44.1 KHz


Opis Uploadu:
* Rozmiar - 0,5gb
* Archiwum - bez hasła
* Zawartość - plik .rmvb
* Rodzaj kompresji - Brak
* Dane naprawcze - Brak


Uwaga! Linki nie zakodowane tylko dla zarejestrowanych użytkowników!

Nie masz konta? Zarejestruj się za darmo!
----------------
Links are not encoded only for registered users only! Plese login or register!

Użytkownik VIP

Albi84Użytkownik

#1 | Dodany: 28 Sierpień 2011 09:06

Wojna światów / War of the Worlds (2005) PL.BRRip.720p.H264-NanoRG *dla EXSite.pl*

Lektor PL


DANE TECHNICZNE:
Video
ID                               : 1
Format                           : AVC
Format/Info                      : Advanced Video Codec
Format profile                   : High@L3.1
Format settings, CABAC           : Yes
Format settings, ReFrames        : 5 frames
Muxing mode                      : Container profile=Unknown@3.1
Codec ID                         : V_MPEG4/ISO/AVC
Duration                         : 1h 56mn
Bit rate                         : 1 449 Kbps
Nominal bit rate                 : 1 517 Kbps
Width                            : 1 280 pixels
Height                           : 704 pixels
Display aspect ratio             : 16:9
Frame rate                       : 23.976 fps
Resolution                       : 8 bits
Colorimetry                      : 4:2:0
Scan type                        : Progressive
Bits/(Pixel*Frame)               : 0.067
Stream size                      : 1.18 GiB (88%)


Audio
ID                               : 2
Format                           : AC-3
Format/Info                      : Audio Coding 3
Codec ID                         : A_AC3
Duration                         : 1h 56mn
Bit rate mode                    : Constant
Bit rate                         : 160 Kbps
Channel(s)                       : 2 channels
Channel positions                : Front: L R
Sampling rate                    : 48.0 KHz
Stream size                      : 133 MiB (10%)
Language                         : Polish  



---400MB PARTY / 5% Danych Naprawczych / 3 serwery na przemian---
Uwaga! Linki nie zakodowane tylko dla zarejestrowanych użytkowników!

Nie masz konta? Zarejestruj się za darmo!
----------------
Links are not encoded only for registered users only! Plese login or register!

--NA PRZEMIAN--

Uwaga! Linki nie zakodowane tylko dla zarejestrowanych użytkowników!

Nie masz konta? Zarejestruj się za darmo!
----------------
Links are not encoded only for registered users only! Plese login or register!

--NA PRZEMIAN--

Uwaga! Linki nie zakodowane tylko dla zarejestrowanych użytkowników!

Nie masz konta? Zarejestruj się za darmo!
----------------
Links are not encoded only for registered users only! Plese login or register!
Użytkownik VIP

PawelticoUżytkownik

#2 | Dodany: 24 Luty 2013 11:23

Wojna światów / War Of The Worlds (2005) PL.DVDRip.XviD / Lektor PL

Dane techniczne:

Format            : AVI at 1.525 Kb/s
Length            : 1,19 GB for 1h 51 min. 40s 240ms

Video #0          : MPEG-4 Visual at 64,7 Kb/s
Aspect            : 640 x 336 (1.905) at 25.000 fps

Audio #0          : AC-3 at 224 Kb/s
Infos             : 2 kanały, 48,0 KHz


DOWNLOAD:
Uwaga! Linki nie zakodowane tylko dla zarejestrowanych użytkowników!

Nie masz konta? Zarejestruj się za darmo!
----------------
Links are not encoded only for registered users only! Plese login or register!


Hasło:
brak hasła

Informacje

Jeżeli chcesz skomentować artykuł musisz być zarejestrowany na stronie.