EXSite.pl - Portal ze wszystkim Mamy tutaj wszystko

NIE MASZ JESZCZE KONTA? ZAREJESTRUJ SIĘ ZA DARMO!   
Przypomnij hasło X

Mumia powraca / The Mummy Returns (2001) PL.DVDRip.H264.AC3-Sajmon

Dodał: sajmon22 2 Listopad 2011 11:32


Mumia powraca / The Mummy Returns (2001) PL.DVDRip.H264.AC3-Sajmon
Mumia powraca / The Mummy Returns
czas trwania: 2 godz. 10 min.
gatunek: Fantasy, Przygodowy
premiera: 22 czerwca 2001 (Polska) 29 kwietnia 2001 (świat)
reżyseria: Stephen Sommers
scenariusz: Stephen Sommers

Opis:
Jest rok 1935. Rick O'Connell i Evelyn są szczęśliwą parą małże?ską. Mieszkają w Londynie, gdzie wychowują ośmioletniego synka Alexa. Ciąg nieprzewidzianych wypadków sprawia, że zabalsamowane ciało Imhotepa powraca do życia w statecznych salach British Museum. Imhotep - Mumia nie daje za wygraną i gotowy jest zrobić wszystko, aby zapewnić sobie nieśmiertelność. W tym samym czasie, w innym zakątku ziemi na wolność wydostaje się jeszcze jedna mroczna siła, powołana do życia dzięki tajemniczym...

General
Complete name : The.Mummy.Returns.2001.PL.DVDRip.H264.AC3-Sajmon
Format : AVI
File size : 1.36 GiB
Duration : 2h 4mn
Overall bit rate : 1 569 Kbps

Video
Codec ID : H264
Bit rate : 1 175 Kbps
Width : 720 pixels
Height : 302 pixels
Display aspect ratio : 2.40:1
Frame rate : 25.000 fps
Bits/(Pixel*Frame) : 0.216
Stream size : 1.02 GiB (75%)

Audio
Format : AC-3
Bit rate : 384 Kbps
Channel(s) : 6 channels
Stream size : 341 MiB (24%)
Uwaga! Linki nie zakodowane tylko dla zarejestrowanych użytkowników!

Nie masz konta? Zarejestruj się za darmo!
----------------
Links are not encoded only for registered users only! Plese login or register!

Informacje

Jeżeli chcesz skomentować artykuł musisz być zarejestrowany na stronie.