EXSite.pl - Portal ze wszystkim Mamy tutaj wszystko

NIE MASZ JESZCZE KONTA? ZAREJESTRUJ SIĘ ZA DARMO!   
Przypomnij hasło X

The Sunset Limited (2011) PL.480p.HDTV.H264.AC3-Sajmon

Dodał: sajmon22 2 Listopad 2011 12:02


The Sunset Limited (2011) PL.480p.HDTV.H264.AC3-Sajmon
The Sunset Limited
czas trwania: 1 godz. 31 min.
gatunek: Dramat
premiera: 12 lutego 2011 (świat)
reżyseria: Tommy Lee Jones
scenariusz: Cormac McCarthy

Opis:
Głęboko religijny były oszust (Samuel L. Jackson) ratuje przed samobójczą śmiercią profesora (Tommy Lee Jones). To dramatyczne wydarzenie powoduje, że obaj panowie zbliżają się do siebie. Szybko zdają sobie sprawę, że więcej ich dzieli niż łączy, ale mimo tego rozpoczynają rozmowę. Zwierzają się sobie nawzajem ze swoich słabości, smutków, potrzeb i radości. W dyskusji każdy z nich stara się przekonać rozmówcę do swoich racji, szanując zarazem jego zdanie i próbują zrozumieć przedstawianą przez drugą stronę argumentację. Ta filozoficzna debata poruszająca wiele ważnych problemów na zawsze odmienia ich życie. Popis kunsztu aktorskiego Samuela L. Jacksona i Tommy'ego Lee Jonesa, którzy są jedynymi aktorami występującymi w tym filmie. Scenariusz na podstawie własnej sztuki teatralnej napisał słynny ameryka?ski pisarz Cormac McCarthy, autor zekranizowanych powieści "Droga" i "To nie jest kraj dla starych ludzi".

General
Complete name : The.Sunset.Limited.2011.PL.480p.HDTV.H264.AC3-Sajmon
Format : AVI
File size : 1.36 GiB
Duration : 1h 30mn
Overall bit rate : 2 147 Kbps

Video
Codec ID : H264
Bit rate : 1 690 Kbps
Width : 720 pixels
Height : 400 pixels
Display aspect ratio : 16:9
Frame rate : 23.976 fps
Bits/(Pixel*Frame) : 0.245
Stream size : 1.07 GiB (79%)

Audio
Format : AC-3
Bit rate : 448 Kbps
Channel(s) : 6 channels
Stream size : 291 MiB (21%)
Uwaga! Linki nie zakodowane tylko dla zarejestrowanych użytkowników!

Nie masz konta? Zarejestruj się za darmo!
----------------
Links are not encoded only for registered users only! Plese login or register!

Użytkownik VIP

different_xUżytkownik

#1 | Dodany: 2 Listopad 2011 12:35

nuda- caly film dzieje sie w jednym pokoju ,gadaja,gadajai gadaja zasnelem NIE POLECAM!!
DIFFERENT_X
Użytkownik VIP

pierug92Użytkownik

#2 | Dodany: 2 Listopad 2011 13:38

The Sunset Limited (2011) PL.480p.HDTV.H264.AC3-Sajmon

General
Complete name : The.Sunset.Limited.2011.PL.480p.HDTV.H264.AC3-Sajmon
Format : AVI
File size : 1.36 GiB
Duration : 1h 30mn
Overall bit rate : 2 147 Kbps

Video
Codec ID : H264
Bit rate : 1 690 Kbps
Width : 720 pixels
Height : 400 pixels
Display aspect ratio : 16:9
Frame rate : 23.976 fps
Bits/(Pixel*Frame) : 0.245
Stream size : 1.07 GiB (79%)

Audio
Format : AC-3
Bit rate : 448 Kbps
Channel(s) : 6 channels
Stream size : 291 MiB (21%)



Uwaga! Linki nie zakodowane tylko dla zarejestrowanych użytkowników!

Nie masz konta? Zarejestruj się za darmo!
----------------
Links are not encoded only for registered users only! Plese login or register!
Użytkownik VIP

LAFFAVIP

#3 | Dodany: 2 Listopad 2011 19:21

ok

Informacje

Jeżeli chcesz skomentować artykuł musisz być zarejestrowany na stronie.