EXSite.pl - Portal ze wszystkim Mamy tutaj wszystko

NIE MASZ JESZCZE KONTA? ZAREJESTRUJ SIĘ ZA DARMO!   
Przypomnij hasło X

Piorun i Lekka Stopa / Thunderbolt and Lightfoot (1974) PLSUB.480p.HDTV.H264.AC3-Sajmon

Dodał: sajmon22 2 Listopad 2011 12:59


Piorun i Lekka Stopa / Thunderbolt and Lightfoot (1974) PLSUB.480p.HDTV.H264.AC3-Sajmon
Piorun i Lekka Stopa / Thunderbolt and Lightfoot
czas trwania: 1 godz. 54 min.
gatunek: Dramat, Komedia, Kryminał
premiera: 23 maja 1974 (świat)
reżyseria: Michael Cimino
scenariusz: Michael Cimino

Opis:
Debiut reżyserski Michaela Cimino. Młody tułacz Lekka Stopa spotyka byłego złodzieja, Johna "Pioruna" Doherty, który od lat ucieka przed byłymi wspólnikami. Dwaj członkowie gangu Pioruna - Red i Eddie uważają, że podczas ostatniego skoku na rządowy skarbiec w Montanie 7 lat wcześniej złodziej wrobił ich i uciekł z łupem. John niechętnie decyduje się nawiązać współpracę z Lekką Stopą, dzieki czemu ma nadzieję nie zostać złapanym przez byłych wspólników. W ko?cu Red i Eddie dopadają parę...

General
Complete name : Thunderbolt.and.Lightfoot.1974.480p.HDTV.PLSUB.H264.AC3-Sajmon
Format : AVI
File size : 1.36 GiB
Duration : 1h 50mn
Overall bit rate : 1 770 Kbps

Video
Codec ID : H264
Bit rate : 1 568 Kbps
Width : 720 pixels
Height : 306 pixels
Display aspect ratio : 2.35:1
Frame rate : 25.000 fps
Bits/(Pixel*Frame) : 0.285
Stream size : 1.21 GiB (89%)

Audio
Format : AC-3
Bit rate : 192 Kbps
Channel(s) : 2 channels
Stream size : 151 MiB (11%)
Uwaga! Linki nie zakodowane tylko dla zarejestrowanych użytkowników!

Nie masz konta? Zarejestruj się za darmo!
----------------
Links are not encoded only for registered users only! Plese login or register!

Informacje

Jeżeli chcesz skomentować artykuł musisz być zarejestrowany na stronie.