EXSite.pl - Portal ze wszystkim Mamy tutaj wszystko

NIE MASZ JESZCZE KONTA? ZAREJESTRUJ SIĘ ZA DARMO!   
Przypomnij hasło X

Borsalino (1970) PLSUB.DVDRip.H264.AC3-Sajmon

Dodał: sajmon22 3 Listopad 2011 18:16


Borsalino (1970) PLSUB.DVDRip.H264.AC3-Sajmon
Borsalino
czas trwania: 2 godz. 6 min.
gatunek: Kryminał
premiera: 20 maja 1970 (świat)
reżyseria: Jacques Deray
scenariusz: Jean-Claude Carrière, Claude Sautet

Opis:
W 1930 roku w Marsylii dwóch drobnych cwaniaczków łączy swoje siły podczas kłótni o kobietę. Ich późniejsze zajęcia okazują się być pracą dla bossa mafii. Posatnawiają pracować dla siebie. Ale we własnych gangsterskich interesach nie idzie im juz tak łatwo...

General
Complete name : Borsalino.1970.PLSUB.DVDRip.H264.AC3-Sajmon
Format : AVI
File size : 2.00 GiB
Duration : 1h 58mn
Overall bit rate : 2 403 Kbps

Video
Codec ID : H264
Bit rate : 1 945 Kbps
Width : 720 pixels
Height : 418 pixels
Display aspect ratio : 16:9
Frame rate : 25.000 fps
Bits/(Pixel*Frame) : 0.259
Stream size : 1.62 GiB (81%)

Audio
Format : AC-3
Bit rate : 448 Kbps
Channel(s) : 2 channels
Stream size : 381 MiB (19%)
Uwaga! Linki nie zakodowane tylko dla zarejestrowanych użytkowników!

Nie masz konta? Zarejestruj się za darmo!
----------------
Links are not encoded only for registered users only! Plese login or register!

Informacje

Jeżeli chcesz skomentować artykuł musisz być zarejestrowany na stronie.