EXSite.pl - Portal ze wszystkim Mamy tutaj wszystko

NIE MASZ JESZCZE KONTA? ZAREJESTRUJ SIĘ ZA DARMO!   
Przypomnij hasło X

Człowiek z dzikiego zachodu / Man of the West (1958) 480p.PLSUB.BDRip.H264.AC3-Sajmon

Dodał: sajmon22 3 Listopad 2011 19:01


Człowiek z dzikiego zachodu / Man of the West (1958) 480p.PLSUB.BDRip.H264.AC3-Sajmon
Człowiek z dzikiego zachodu / Man of the West
czas trwania: 1 godz. 40 min.
gatunek: Melodramat, Western
premiera: 1 października 1958 (świat)
reżyseria: Anthony Mann
scenariusz: Reginald Rose

Opis:
Pociąg, którym jechał Link Jones (Gary Cooper), spokojny farmer, zostaje napadnięty, a on sam wraz z pewną tancerką i hazardzistą pozostawieni zostają w polu z daleka od domu. Jones postanawia poszukać schronienia wśród wyjętych spod prawa. Oni jednak żądają aby pomógł im w ostanim napadzie na bank...

General
Complete name : Man.of.the.West.1958.480p.PLSUB.BDRip.H264.AC3-Sajmon
Format : AVI
File size : 1.36 GiB
Duration : 1h 35mn
Overall bit rate : 2 050 Kbps

Video
Codec ID : H264
Bit rate : 1 656 Kbps
Width : 720 pixels
Height : 306 pixels
Display aspect ratio : 2.35:1
Frame rate : 25.000 fps
Bits/(Pixel*Frame) : 0.301
Stream size : 1.10 GiB (81%)

Audio
Format : AC-3
Bit rate : 384 Kbps
Channel(s) : 2 channels
Stream size : 261 MiB (19%)
Uwaga! Linki nie zakodowane tylko dla zarejestrowanych użytkowników!

Nie masz konta? Zarejestruj się za darmo!
----------------
Links are not encoded only for registered users only! Plese login or register!

Użytkownik VIP

macsuperUżytkownik

#1 | Dodany: 3 Listopad 2011 20:40

No i gdzie te napisy ???????????????? Oszustwo !!!!!!!!!!!!!!!!!!!!!!!!

No i gdzie te napisy ???????????????? Oszustwo !!!!!!!!!!!!!!!!!!!!!!!!
Użytkownik VIP

sajmon22VIP

#2 | Dodany: 3 Listopad 2011 20:45

Cytat: macsuper
No i gdzie te napisy ???????????????? Oszustwo !!!!!!!!!!!!!!!!!!!!!!!!

tam był taki mały pliczek .srt nie trzeba było go kasować :)
Użytkownik VIP

lester04Użytkownik

#3 | Dodany: 14 Listopad 2011 15:16

Po raz drugi ściągnąłem i nie ma żadnego innego pliku oprócz avi
Użytkownik VIP

przemszaUżytkownik

#4 | Dodany: 22 Listopad 2011 12:56

Nie ma, potwierdzam
Użytkownik VIP

sajmon22VIP

#5 | Dodany: 22 Listopad 2011 13:56

http://napisy.info/SzukajNapisow.php?to=Man+of+the+West&tp=Cz%B3owiek+z+dzikiego+zachodu&k=

spróbujcie czy te beda pasowac
widac sie zamotalem i zapomnialem skopiowac do katalogu feel

Informacje

Jeżeli chcesz skomentować artykuł musisz być zarejestrowany na stronie.