EXSite.pl - Portal ze wszystkim Mamy tutaj wszystko

NIE MASZ JESZCZE KONTA? ZAREJESTRUJ SIĘ ZA DARMO!   
Przypomnij hasło X

Bandyta / Brute (1997) PL.DVDRip.H264.AC3-Sajmon

Dodał: sajmon22 4 Listopad 2011 12:11


Bandyta / Brute (1997) PL.DVDRip.H264.AC3-Sajmon
Bandyta / Brute
czas trwania: 1 godz. 30 min.
gatunek: Dramat obyczajowy, Psychologiczny
premiera: 7 listopada 1997 (Polska) 1 października 1997 (świat)
reżyseria: Maciej Dejczer
scenariusz: Cezary Harasimowicz

Opis:
Brute - brutalny, szorstki recydywista, pół Anglik, pół Polak zostaje zesłany w ramach resocjalizacji do dziecięcego szpitala w Rumunii, którym zarządza ordynator Sincai. Trafia do przedsionka piekła. Niemal każdego dnia szpitalna furmanka wywozi trumnę z ciałem zmarłego dziecka. Pielęgniarka Mara dwoi się i troi, żeby ulżyć swoim małym podopiecznym w ich nieszczęściu. Chirurg Babits, zmuszony do wykonywania swoich obowiązków w okropnych warunkach i często przez to bezsilny wobec śmierci, topi...

General
Complete name : Brute.1997.PL.DVDRip.H264.AC3-Sajmon
Format : AVI
File size : 1.36 GiB
Duration : 1h 28mn
Overall bit rate : 2 203 Kbps

Video
Codec ID : H264
Bit rate : 1 873 Kbps
Width : 720 pixels
Height : 400 pixels
Display aspect ratio : 16:9
Frame rate : 25.000 fps
Bits/(Pixel*Frame) : 0.260
Stream size : 1.16 GiB (85%)

Audio
Format : AC-3
Bit rate : 320 Kbps
Channel(s) : 2 channels
Stream size : 203 MiB (15%)
Uwaga! Linki nie zakodowane tylko dla zarejestrowanych użytkowników!

Nie masz konta? Zarejestruj się za darmo!
----------------
Links are not encoded only for registered users only! Plese login or register!

Informacje

Jeżeli chcesz skomentować artykuł musisz być zarejestrowany na stronie.