EXSite.pl - Portal ze wszystkim Mamy tutaj wszystko

NIE MASZ JESZCZE KONTA? ZAREJESTRUJ SIĘ ZA DARMO!   
Przypomnij hasło X

Hua Mulan (2009) PL.480p.BDRip.H264.AC3-Sajmon

Dodał: sajmon22 4 Listopad 2011 12:47


Hua Mulan (2009) PL.480p.BDRip.H264.AC3-Sajmon
Hua Mulan
Produkcja: Chiny, USA
Gatunek: Melodramat, Przygodowy
Data premiery: 26.11.2009 - świat
Reżyseria: Jingle Ma
Scenariusz: Ting Zhang
Ocena: brak
Czas trwania: 109 minut

Opis:
W okresie panowania północnej dynastii, zwanej Wei, żyła mała dziewczynka o imieniu Hua Mulan (Jiao Xu), która mieszkała samotnie z jej ojcem, Hua Hu. Już jako młoda dziewczynka uczyła się potajemnie u boku ojca sztuki wojennej oraz strategii i wkrótce stała się wyszkoloną wojowniczką. Kiedy Mulan (Wei Zhao) miała 18 lat, nomadowie zwani Rouranami rozpoczęli inwazję przeciwko Wei. W obliczu zagrożenia, władze powołały każdego mężczyznę z każdej rodziny do armii. Dorosła już córka nie chcąc pozwolić swojemu ojcu powrócić do armii w jego podeszłym już wieku, odurzyła go, przebrała się za mężczyznę i w sekrecie wstąpiła do wojska w jego miejsce. Wkrótce po rekrutacji, jej zdolności zostały zauważone przez Wei Tai (Kun Chen), zastępcy dowódcy batalionu. Pewnego dnia Mulan brała kąpiel w gorącym źródle. Nie wiedziała, że jest to prywatne miejsce kąpieli dowódcy batalionu. Gdy spostrzegła, że Wei Tai zobaczył ją, powaliła go i uciekła. Lecz tajemnica jej prawdziwej płci została odkryta.

General
Complete name : Hua.Mulan.2009.PL.480p.BDRip.H264.AC3-Sajmon
Format : AVI
File size : 1.36 GiB
Duration : 1h 54mn
Overall bit rate : 1 708 Kbps

Video
Codec ID : H264
Bit rate : 1 251 Kbps
Width : 720 pixels
Height : 304 pixels
Display aspect ratio : 2.35:1
Frame rate : 24.000 fps
Bits/(Pixel*Frame) : 0.238
Stream size : 1 022 MiB (73%)

Audio
Format : AC-3
Bit rate : 448 Kbps
Channel(s) : 6 channels
Stream size : 366 MiB (26%)
Uwaga! Linki nie zakodowane tylko dla zarejestrowanych użytkowników!

Nie masz konta? Zarejestruj się za darmo!
----------------
Links are not encoded only for registered users only! Plese login or register!

Użytkownik VIP

jedenkyloUżytkownik

#1 | Dodany: 4 Listopad 2011 13:13

A czy Sajmon to nie jest czasem ten sztuczny lektor/syntezator ? belay
Użytkownik VIP

sajmon22VIP

#2 | Dodany: 4 Listopad 2011 13:26

Cytat: jedenkylo
A czy Sajmon to nie jest czasem ten sztuczny lektor/syntezator ?


nie,to nie jest ivona :)
audio jest z TV
Użytkownik VIP

marc75Użytkownik

#3 | Dodany: 4 Listopad 2011 16:29

potwierdzam normalny lektor PL nie zadna IVONa
Użytkownik VIP

PROSTO84Użytkownik

#4 | Dodany: 4 Listopad 2011 17:43

ok
Użytkownik VIP

qgrzegorzGość

#5 | Dodany: 6 Grudzień 2011 18:36

Hua Mulan (2009)PL.480p.BDRip.XviD.AC3-ELiTE | Lektor PL


Dane techniczne

Video
Codec ID                         : XVID
Bit rate                         : 1 864 Kbps
Width                            : 720 pixels
Height                           : 304 pixels
Frame rate                       : 24.000 fps
Audio
Format                           : AC-3
Bit rate                         : 448 Kbps
Channel(s)                       : 6 channels
Sampling rate                    : 48.0 KHz
Bit depth                        : 16 bits


Opis techniczny uploadu

wielkość całości:1.89 GB
rodzaj kompresji: .rar
zawartość uploadu:  plik  .avi
wersja językowa: pl
Dane Naprawcze: 2%


Można Pobierać Na Przemian

JEśLI LINKI WYGASŁY NAPISZ DO MNIE ZROBIE REUPLOAD
Uwaga! Linki nie zakodowane tylko dla zarejestrowanych użytkowników!

Nie masz konta? Zarejestruj się za darmo!
----------------
Links are not encoded only for registered users only! Plese login or register!


Uwaga! Linki nie zakodowane tylko dla zarejestrowanych użytkowników!

Nie masz konta? Zarejestruj się za darmo!
----------------
Links are not encoded only for registered users only! Plese login or register!


Uwaga! Linki nie zakodowane tylko dla zarejestrowanych użytkowników!

Nie masz konta? Zarejestruj się za darmo!
----------------
Links are not encoded only for registered users only! Plese login or register!



Hasło

Brak hasła

Informacje

Jeżeli chcesz skomentować artykuł musisz być zarejestrowany na stronie.