EXSite.pl - Portal ze wszystkim Mamy tutaj wszystko

NIE MASZ JESZCZE KONTA? ZAREJESTRUJ SIĘ ZA DARMO!   
Przypomnij hasło X

Stygmaty / Stigmata (1999) PL.480p.HDTV.H264.AC3-Sajmon

Dodał: sajmon22 4 Listopad 2011 13:31


Stygmaty / Stigmata (1999) PL.480p.HDTV.H264.AC3-Sajmon
Stygmaty / Stigmata
czas trwania: 1 godz. 43 min.
gatunek: Horror, Religijny
premiera: 17 sierpnia 2001 (Polska) 10 września 1999 (świat)
reżyseria: Rupert Wainwright
scenariusz: Tom Lazarus, Tom Malone

Opis:
Historia młodej kobiety, która jest tytułowym Stygmatykiem - osobą doświadczającą identycznych ran co Jezus Chrystus w dniu ukrzyżowania. Kościół Katolicki bardzo sceptycznie wypowiada się względem takich przypadków. Podobnie jest i tym razem, jednak tutaj rola kościoła nie ogranicza się jedynie do krytyki. Informacje jakie może przekazać stygmata sprawiają, iż najwyżsi rangą kapłani z Watykanu mają co do stygmaty bardzo różne plany...

General
Complete name : Stigmata.1999.PL.480p.HDTV.H264.AC3-Sajmon
Format : AVI
File size : 1.36 GiB
Duration : 1h 41mn
Overall bit rate : 1 912 Kbps

Video
Codec ID : H264
Bit rate : 1 455 Kbps
Width : 720 pixels
Height : 400 pixels
Display aspect ratio : 16:9
Frame rate : 23.976 fps
Bits/(Pixel*Frame) : 0.211
Stream size : 1.04 GiB (76%)

Audio
Format : AC-3
Bit rate : 448 Kbps
Channel(s) : 6 channels
Stream size : 327 MiB (23%)
Uwaga! Linki nie zakodowane tylko dla zarejestrowanych użytkowników!

Nie masz konta? Zarejestruj się za darmo!
----------------
Links are not encoded only for registered users only! Plese login or register!

Informacje

Jeżeli chcesz skomentować artykuł musisz być zarejestrowany na stronie.