EXSite.pl - Portal ze wszystkim Mamy tutaj wszystko

NIE MASZ JESZCZE KONTA? ZAREJESTRUJ SIĘ ZA DARMO!   
Przypomnij hasło X

American Summer / The Pool Boys (2010) PL.DVDRip.H264.AC3-Sajmon

Dodał: sajmon22 5 Listopad 2011 18:52


American Summer / The Pool Boys (2010) PL.DVDRip.H264.AC3-Sajmon

czas trwania: 1 godz. 28 min.
gatunek: Komedia
premiera: 19 marca 2010 (świat)
reżyseria: J.B. Rogers
scenariusz: Stuart Gibbs, Justin Ware


Alex, na kilka miesięcy przed rozpoczęciem studiów na Harvardzie udaje się do słonecznego Los Angeles, by przez wakacje popracować dla swojego odnoszącego sukcesy kuzyna Rogera. Na miejscu okazuje się jednak, że wbrew przekonaniu całej rodziny Roger nie jest żadnym biznesmenem. Szybko wyleciał z Harvardu i od tego czasu zajmuje się czyszczeniem basenów. Seria niefortunnych wydarze? sprawia, że kuzyni zostają bez dachu nad głową. Jedynym wyjściem okazuje się przeprowadzka do okazałej

General
Complete name : American.Summer.2010.PL.DVDRip.H264.AC3-Sajmon
Format : AVI
File size : 1.36 GiB
Duration : 1h 24mn
Overall bit rate : 2 305 Kbps

Video
Codec ID : H264
Bit rate : 1 848 Kbps
Width : 720 pixels
Height : 402 pixels
Display aspect ratio : 16:9
Frame rate : 25.000 fps
Bits/(Pixel*Frame) : 0.255
Stream size : 1.09 GiB (80%)

Audio
Format : AC-3
Bit rate : 448 Kbps
Channel(s) : 6 channels
Stream size : 271 MiB (19%)
Uwaga! Linki nie zakodowane tylko dla zarejestrowanych użytkowników!

Nie masz konta? Zarejestruj się za darmo!
----------------
Links are not encoded only for registered users only! Plese login or register!

Użytkownik VIP

guciu1991Użytkownik

#1 | Dodany: 5 Listopad 2011 22:19

brak dialogow w filmie glosy tla sa jednym slowem gimela i nie polecam sciagac.

Informacje

Jeżeli chcesz skomentować artykuł musisz być zarejestrowany na stronie.