EXSite.pl - Portal ze wszystkim Mamy tutaj wszystko

NIE MASZ JESZCZE KONTA? ZAREJESTRUJ SIĘ ZA DARMO!   
Przypomnij hasło X

Larry Crowne uśmiech losu / Larry Crowne (2011) PL.DVDRip.H264.AC3-Sajmon

Dodał: sajmon22 5 Listopad 2011 19:14


Larry Crowne uśmiech losu / Larry Crowne (2011) PL.DVDRip.H264.AC3-Sajmon

czas trwania: 1 godz. 39 min.
gatunek: Dramat, Komedia obycz.
premiera: 1 lipca 2011 (Polska) 30 czerwca 2011 (świat)
reżyseria: Tom Hanks
scenariusz: Tom Hanks, Nia Vardalos

Zdobywcy Oscara Tom Hanks ("Filadelfia", "Forrest Gump") oraz Julia Roberts ("Erin Brockovich") w niezwykłym filmie o tym, jak życie w najmniej oczekiwanych momentach, potrafi przynieść największe niespodzianki. Larry Crowne (Tom Hanks) to zwykły, miły facet, od wielu lat zatrudniony w tej samej firmie i prowadzący normalne, uporządkowane życie. Pewnego dnia jednak wszystko się zmienia – Larry nieoczekiwanie traci pracę. Musi przeorganizować swoje życie i zacząć wszystko od początku. Nie dość, że ma na głowie spłatę kredytu, to nagle okazuje się, że wcale nie tak łatwo mu wypełnić czas wolny. Pierwszym krokiem na nowej drodze jest nauka jazdy na skuterze i powrót na studia zgodnie z zasadą, że nigdy nie jest za późno na zdobywanie wiedzy. Na kursie Larry poznaje także uroczą nauczycielkę (Julia Roberts), którą obdarza czymś więcej niż tylko sympatią. Wkrótce okazuje się, że nigdy nie jest za późno także na miłość. W ko?cu, jak mawiał Forrest Gump, życie jest jak pudełko czekoladek, nigdy nie wiesz co Ci się przytrafi. Uśmiechnij się do losu, a los uśmiechnie się do Ciebie. Najlepsze dopiero przed Tobą!

General
Complete name : Larry.Crowne.2011.PL.DVDRip.H264.AC3-Sajmon
Format : AVI
File size : 1.36 GiB
Duration : 1h 34mn
Overall bit rate : 2 069 Kbps

Video
Codec ID : H264
Bit rate : 1 612 Kbps
Width : 720 pixels
Height : 402 pixels
Display aspect ratio : 16:9
Frame rate : 25.000 fps
Bits/(Pixel*Frame) : 0.223
Stream size : 1.06 GiB (78%)

Audio
Format : AC-3
Bit rate : 448 Kbps
Channel(s) : 6 channels
Stream size : 302 MiB (22%)
Uwaga! Linki nie zakodowane tylko dla zarejestrowanych użytkowników!

Nie masz konta? Zarejestruj się za darmo!
----------------
Links are not encoded only for registered users only! Plese login or register!

Użytkownik VIP

RiCo26VIP

#1 | Dodany: 5 Listopad 2011 19:15

Nazwa releasu:
Larry Crowne - uśmiech losu / Larry Crowne (2011) PL.DVDRiP.XViD-PSiG


Dane techniczne:
TITLE ORYG.......: Larry Crowne                                      
       TITLE PL.........: Larry Crowne - usmiech losu                      
        RELEASE DATE.....: 02/11/2011                                      
        LANGUAGE.........: Polish Lector                                    
        GENRE............: Comedy | Drama | Romance                        
        RUNTiME..........: 1 h 34 min                                      
        SOURCE...........: DVD9 R2                                          
                                                                            
        ViDEO............: ~898 kbps, XViD                                  
        AUDiO............: ~128 kbps, 2 chnls, MP3                          
        ASPECT RATiO.....: 2.35:1                                          
        RESOLUTiON.......: 640 x 272                                        
        FRAMERATE........: 25.000 FPS                                      
        SiZE.............: 700 MB                    


Opis uploadu:
wielkość całości: 700 mb
rodzaj kompresji: .rar
zawartość uploadu: plik .avi
brak danych naprawczych

Download:
(można pobierać zamiennie z serwerów)
http://www.filesonic.com/file/2957356565/Larry.Crowne.2011.PL.DVDRiP.XViD-PSiG.part1.rar
http://www.filesonic.com/file/2957356385/Larry.Crowne.2011.PL.DVDRiP.XViD-PSiG.part2.rar

http://www.fileserve.com/file/gpNVEum
http://www.fileserve.com/file/evTJnQs

HASŁO:
Brak
Użytkownik VIP

MALY1204Użytkownik

#2 | Dodany: 5 Listopad 2011 19:20

Release : Larry Crowne (2011) PL.SUBBED.BRRip.XviD-MaK
Rozmiar : 705MB
Video: XVID 672x288 23.98fps [Stream 00]
Audio: MPEG Audio Layer 3 48000Hz stereo 112Kbps [Stream 01]

Download

Uwaga! Linki nie zakodowane tylko dla zarejestrowanych użytkowników!

Nie masz konta? Zarejestruj się za darmo!
----------------
Links are not encoded only for registered users only! Plese login or register!




----------------------------------------------------------------------------------


Release : Larry Crowne (2011) PL.SUBBED.BDRip.XviD-MaK
Rozmiar : 698MB
Video : XVID 640x272 23.98fps [Stream 00]
Audio : MPEG Audio Layer 3 48000Hz stereo 129Kbps [Stream 01]

Download

Uwaga! Linki nie zakodowane tylko dla zarejestrowanych użytkowników!

Nie masz konta? Zarejestruj się za darmo!
----------------
Links are not encoded only for registered users only! Plese login or register!

Informacje

Jeżeli chcesz skomentować artykuł musisz być zarejestrowany na stronie.