EXSite.pl - Portal ze wszystkim Mamy tutaj wszystko

NIE MASZ JESZCZE KONTA? ZAREJESTRUJ SIĘ ZA DARMO!   
Przypomnij hasło X

Gra namiętności / Passion Play (2010) PL.DVDRip.H264.AC3-Sajmon

Dodał: sajmon22 5 Listopad 2011 21:15


Gra namiętności / Passion Play (2010) PL.DVDRip.H264.AC3-Sajmon

reżyseria: Mitch Glazer
scenariusz: Mitch Glazer
premiera: 10 września 2010 (świat)
produkcja: USA
gatunek: Dramat, Thriller

Film przedstawia historię upadłego trębacza (Mickey Rourke), który ratuje piękną młodą dziewczynę (Megan Fox) przed brutalnym gangsterem. Wkrótce mężczyzna odkrywa, iż nieznajoma jest aniołem i da możliwość odkupienia swoich win oraz zmienienia swojego losu.

General
Complete name : Passion Play.2010.PL.DVDRip.H264.AC3-Sajmon
Format : AVI
File size : 1.36 GiB
Duration : 1h 30mn
Overall bit rate : 2 166 Kbps

Video
Codec ID : H264
Bit rate : 1 708 Kbps
Width : 720 pixels
Height : 402 pixels
Display aspect ratio : 16:9
Frame rate : 25.000 fps
Bits/(Pixel*Frame) : 0.236
Stream size : 1.07 GiB (79%)

Audio
Format : AC-3
Bit rate : 448 Kbps
Channel(s) : 6 channels
Stream size : 289 MiB (21%)
Uwaga! Linki nie zakodowane tylko dla zarejestrowanych użytkowników!

Nie masz konta? Zarejestruj się za darmo!
----------------
Links are not encoded only for registered users only! Plese login or register!

Użytkownik VIP

agatka26Użytkownik

#1 | Dodany: 5 Listopad 2011 21:17

ok
Gra namiętności / Passion Play (2011) PL.DVDRip.XViD-SLiSU LEKTOR PL

Nazwa: Passion.Play.2011.PL.DVDRip.XViD-SLiSU
Data wydania: 03.11.2011
Liczba CD: 1
Parametry: Video - 640x352, XviD ~949 kbps; Audio - MP3 ~128 kbps
Dodatkowe info: Polski Lektor profesjonalny


darmowe serwery bez limitów!!!
party po 700 MB
tylko jeden link!!!


Uwaga! Linki nie zakodowane tylko dla zarejestrowanych użytkowników!

Nie masz konta? Zarejestruj się za darmo!
----------------
Links are not encoded only for registered users only! Plese login or register!

Informacje

Jeżeli chcesz skomentować artykuł musisz być zarejestrowany na stronie.